<?xml version="1.0" standalone="no"?>
<!DOCTYPE svg PUBLIC "-//W3C//DTD SVG 1.1//EN" "http://www.w3.org/Graphics/SVG/1.1/DTD/svg11.dtd" >
<svg xmlns="http://www.w3.org/2000/svg" xmlns:xlink="http://www.w3.org/1999/xlink" version="1.1">
<metadata>
Created by FontForge 20150318 at Thu May 21 08:13:37 2015
 By uniteet7
Copyright (c) 2013 by Alessio Laiso (alessio.laiso@gmail.com). Licensed under the SIL Open Font License, Version 1.1.
</metadata>
<defs>
<font id="AleoRegular" horiz-adv-x="1545" >
  <font-face 
    font-family="AleoRegular"
    font-weight="400"
    font-stretch="normal"
    units-per-em="2000"
    panose-1="2 15 5 2 2 2 4 3 2 3"
    ascent="1610"
    descent="-390"
    x-height="1013"
    cap-height="1433"
    bbox="10 -365 2216 1837"
    underline-thickness="120"
    underline-position="-80"
    unicode-range="U+000D-FB02"
  />
<missing-glyph horiz-adv-x="1188" 
d="M313 1141q25 22 53.5 41t62.5 33.5t73.5 23t85.5 8.5q63 0 114.5 -17.5t88 -49.5t57 -77.5t20.5 -101.5q0 -55 -15 -95t-37.5 -69.5t-49.5 -51t-51 -40.5t-41.5 -37.5t-21.5 -41.5l-17 -105h-122l-12 117q-4 34 9 59.5t35.5 47t50 41.5t51.5 43t40 52t16 69
q0 51 -36.5 81t-93.5 30q-41 0 -69 -9t-48 -20t-34 -20t-25 -9q-25 0 -37 22zM459 292q0 47 31 79t79 32q22 0 42 -8.5t34.5 -23.5t23 -35.5t8.5 -43.5t-8.5 -43t-23 -35t-34.5 -23.5t-42 -8.5q-48 0 -79 31.5t-31 78.5zM108 1433h974v-1433h-974v1433zM158 54h867v1324
h-867v-1324z" />
    <glyph glyph-name="fi" unicode="fi" horiz-adv-x="1194" 
d="M679 86q0 31 31 37l114 23v-146h-145v86zM1002 146l114 -23q30 -6 30 -37v-86h-322v864h-428v-718q119 -20 133 -23q30 -6 30 -37v-86h-163h-179h-155v86q0 31 31 37q11 2 124 23v715l-112 13q-48 11 -48 46v73h160v56q0 192 116 304q118 114 346 118q187 0 307 -93
q56 -40 56 -105q0 -50 -39 -88q-37 -38 -76 -38t-61.5 10t-40.5 28q-37 37 -37 88q0 21 6 40q-93 33 -183.5 15t-139.5 -63q-81 -74 -81 -221v-51h612v-847z" />
    <glyph glyph-name="fl" unicode="fl" horiz-adv-x="1309" 
d="M633 1460l308 -12h100v-1176q1 -79 33.5 -115.5t110.5 -36.5h40q14 0 22 -3q7 -4 9 -16l8 -96q-54 -20 -122 -20q-139 0 -212 84q-67 75 -67 205v1053h-203q-130 0 -200 -74t-70 -207v-53h264v-129h-258v-717q119 -20 133 -23q30 -6 30 -37v-86h-163h-179h-155v86
q0 31 31 37q4 1 124 23v701l-112 15q-48 11 -48 50v80h160v54q0 179 104 291q113 122 312 122z" />
    <glyph glyph-name=".notdef" horiz-adv-x="1188" 
d="M313 1141q25 22 53.5 41t62.5 33.5t73.5 23t85.5 8.5q63 0 114.5 -17.5t88 -49.5t57 -77.5t20.5 -101.5q0 -55 -15 -95t-37.5 -69.5t-49.5 -51t-51 -40.5t-41.5 -37.5t-21.5 -41.5l-17 -105h-122l-12 117q-4 34 9 59.5t35.5 47t50 41.5t51.5 43t40 52t16 69
q0 51 -36.5 81t-93.5 30q-41 0 -69 -9t-48 -20t-34 -20t-25 -9q-25 0 -37 22zM459 292q0 47 31 79t79 32q22 0 42 -8.5t34.5 -23.5t23 -35.5t8.5 -43.5t-8.5 -43t-23 -35t-34.5 -23.5t-42 -8.5q-48 0 -79 31.5t-31 78.5zM108 1433h974v-1433h-974v1433zM158 54h867v1324
h-867v-1324z" />
    <glyph glyph-name=".null" horiz-adv-x="263" 
 />
    <glyph glyph-name="nonmarkingreturn" unicode="&#xd;" horiz-adv-x="263" 
 />
    <glyph glyph-name="NULL" horiz-adv-x="263" 
 />
    <glyph glyph-name="NULL" horiz-adv-x="263" 
 />
    <glyph glyph-name="space" unicode=" " horiz-adv-x="430" 
 />
    <glyph glyph-name="exclam" unicode="!" horiz-adv-x="388" 
d="M281 1433v-572q0 -45 -1.5 -88t-4.5 -86.5t-7.5 -89t-10.5 -97.5h-121q-6 52 -10.5 97.5t-7.5 89t-4.5 86.5t-1.5 88v572h169zM69 110q0 26 9.5 49t26 40t39.5 27t49 10t49 -10t40 -27t26.5 -40t9.5 -49q0 -27 -9.5 -49.5t-26.5 -39.5t-40 -26.5t-49 -9.5t-49 9.5
t-39.5 26.5t-26 39.5t-9.5 49.5z" />
    <glyph glyph-name="quotedbl" unicode="&#x22;" horiz-adv-x="661" 
d="M242 1433v-290l-16 -155q-3 -32 -17 -49.5t-45 -17.5q-26 0 -40.5 17.5t-20.5 49.5l-16 155v290h155zM575 1433v-290l-16 -155q-3 -32 -17 -49.5t-45 -17.5q-26 0 -40.5 17.5t-20.5 49.5l-16 155v290h155z" />
    <glyph glyph-name="numbersign" unicode="#" horiz-adv-x="1138" 
d="M783 423l-84 -423h-81q-23 0 -39 17t-16 44q0 4 0.5 7.5t1.5 8.5l71 346h-247l-71 -355q-8 -37 -30.5 -52.5t-51.5 -15.5h-79l85 423h-146q-23 0 -36 11.5t-13 39.5q0 5 0.5 11t1.5 12l8 57h204l65 326h-232l13 74q5 29 23 43t57 14h158l72 358q6 30 27.5 47t51.5 17h80
l-84 -422h247l84 422h79q25 0 41.5 -15t16.5 -39q0 -8 -1 -13l-73 -355h212l-13 -75q-5 -29 -23.5 -42.5t-56.5 -13.5h-138l-65 -326h179q24 0 37 -11.5t13 -40.5q0 -5 -0.5 -10.5t-1.5 -11.5l-9 -57h-237zM408 554h247l65 326h-247z" />
    <glyph glyph-name="dollar" unicode="$" horiz-adv-x="1031" 
d="M425 -12q-121 11 -220.5 59.5t-171.5 123.5l53 82q7 11 20 18t27 7q19 0 43 -19t59 -43.5t83.5 -47.5t116.5 -31l37 531q-70 21 -137.5 47.5t-121 69t-86 107t-32.5 161.5q0 73 28.5 142.5t83 123.5t134.5 88.5t184 38.5l10 144q2 19 15 34t35 15h66l-14 -198
q105 -13 181 -54t136 -99l-43 -66q-20 -30 -46 -30q-14 0 -34.5 12.5t-49.5 29t-67 33t-87 23.5l-33 -484q72 -22 142 -48t126 -67t90.5 -102.5t34.5 -153.5q0 -90 -30 -169t-87.5 -139t-141 -97.5t-190.5 -43.5l-12 -176q-2 -19 -15.5 -33.5t-34.5 -14.5h-66zM818 407
q0 50 -18.5 86t-50.5 62t-75 45t-92 35l-34 -498q65 6 115.5 28.5t85 57.5t52 81.5t17.5 102.5zM263 1071q0 -48 17 -83.5t47 -62.5t70 -47t87 -36l30 451q-65 -6 -112.5 -26t-78 -50t-45.5 -67.5t-15 -78.5z" />
    <glyph glyph-name="percent" unicode="%" horiz-adv-x="1531" 
d="M689 1087q0 -84 -26 -150.5t-69.5 -112t-101.5 -69.5t-121 -24q-68 0 -125.5 24t-100.5 69.5t-67 112t-24 150.5q0 86 24 153t67 113t100.5 70t125.5 24q67 0 125.5 -24t101 -70t67 -113t24.5 -153zM550 1087q0 66 -14 112t-38.5 75.5t-57 42.5t-69.5 13t-69.5 -13
t-56.5 -42.5t-37.5 -75.5t-13.5 -112q0 -65 13.5 -110.5t37.5 -74t56.5 -41t69.5 -12.5t69.5 12.5t57 41t38.5 74t14 110.5zM1190 1397q13 17 27.5 26.5t38.5 9.5h128l-1047 -1404q-10 -13 -24 -21t-33 -8h-132zM1481 338q0 -84 -26 -150t-69.5 -111.5t-101 -69.5
t-120.5 -24q-68 0 -125.5 24t-100.5 69.5t-67 111.5t-24 150q0 86 24 153.5t67 113.5t100.5 70t125.5 24q67 0 125 -24t101 -70t67 -113.5t24 -153.5zM1343 338q0 66 -14 112.5t-38.5 75.5t-57 42t-69.5 13t-69.5 -13t-56.5 -42t-37.5 -75.5t-13.5 -112.5q0 -65 13.5 -110
t37.5 -73.5t56.5 -41t69.5 -12.5t69.5 12.5t57 41t38.5 73.5t14 110z" />
    <glyph glyph-name="ampersand" unicode="&#x26;" horiz-adv-x="1401" 
d="M629 1449q79 0 144 -25.5t112.5 -67.5t75 -97.5t31.5 -115.5l-111 -22q-5 -1 -9 -1q-13 0 -24.5 7t-16.5 25q-7 26 -22.5 54t-40 51t-59 38t-80.5 15q-50 0 -90 -16t-68.5 -44.5t-44 -67t-15.5 -83.5q0 -35 8.5 -67t25.5 -64.5t44 -67t65 -72.5l412 -419
q38 67 60.5 140.5t30.5 147.5q2 19 12 30t28 11h110q-2 -115 -37 -226t-101 -208l300 -304h-172q-29 0 -47 7t-40 29l-144 145q-94 -91 -216.5 -144t-269.5 -53q-80 0 -157 27t-137.5 78.5t-97.5 125.5t-37 167q0 70 23.5 132.5t65 115.5t98.5 95t125 72q-61 77 -90 150
t-29 151q0 73 26.5 137t76.5 111.5t121.5 75t160.5 27.5zM232 396q0 -65 24 -114.5t63 -83.5t89 -51.5t102 -17.5q112 0 201 41t157 109l-423 427q-106 -57 -159.5 -136.5t-53.5 -173.5z" />
    <glyph glyph-name="quotesingle" unicode="'" horiz-adv-x="328" 
d="M242 1433v-290l-16 -155q-3 -32 -17 -49.5t-45 -17.5q-26 0 -40.5 17.5t-20.5 49.5l-16 155v290h155z" />
    <glyph glyph-name="parenleft" unicode="(" horiz-adv-x="480" 
d="M218 629q0 -214 55 -415.5t159 -384.5q6 -11 8 -19t2 -16q0 -14 -7 -23t-18 -16l-79 -48q-75 115 -127.5 228t-85 227t-47.5 229.5t-15 237.5q0 121 15 237t47.5 229.5t85 226.5t127.5 229l79 -49q11 -7 18 -16t7 -23q0 -15 -10 -34q-105 -182 -159.5 -384t-54.5 -416z
" />
    <glyph glyph-name="parenright" unicode=")" horiz-adv-x="481" 
d="M265 629q0 214 -54.5 416t-159.5 384q-10 19 -10 34q0 14 7 23t18 16l79 49q75 -116 127.5 -229t85 -226.5t47.5 -229.5t15 -237q0 -122 -15 -237.5t-47.5 -229.5t-85 -227t-127.5 -228l-79 48q-11 7 -18 16t-7 23q0 8 2 16t8 19q104 183 159 384.5t55 415.5z" />
    <glyph glyph-name="asterisk" unicode="*" horiz-adv-x="736" 
d="M323 863v197q0 19 2.5 36t9.5 33q-20 -25 -53 -45l-172 -99l-44 75l172 100q36 21 73 24q-20 2 -37.5 7.5t-35.5 17.5l-173 101l44 75l173 -100q35 -20 57 -52q-9 18 -12.5 36.5t-3.5 38.5v198h88v-197q0 -41 -14 -72q11 15 24.5 26t30.5 22l172 99l44 -75l-172 -100
q-17 -11 -33.5 -17t-34.5 -8q18 -2 34.5 -7.5t33.5 -16.5l173 -101l-44 -75l-173 100q-18 11 -32 22t-25 27q16 -33 16 -72v-198h-88z" />
    <glyph glyph-name="plus" unicode="+" horiz-adv-x="1069" 
d="M606 1166v-427h407v-135h-407v-430h-146v430h-405v135h405v427h146z" />
    <glyph glyph-name="comma" unicode="," horiz-adv-x="417" 
d="M92 123q0 23 8.5 43.5t24 36t37.5 24.5t48 9q30 0 53.5 -11t39 -30.5t23.5 -45t8 -55.5q0 -45 -13 -93.5t-37 -96t-59.5 -92.5t-80.5 -83l-30 29q-13 12 -13 28q0 13 14 27q10 11 25.5 29.5t31.5 42.5t29.5 53t19.5 62h-13q-26 0 -47 9t-36.5 25.5t-24 39t-8.5 49.5z" />
    <glyph glyph-name="hyphen" unicode="-" horiz-adv-x="683" 
d="M95 675h494v-151h-494v151z" />
    <glyph glyph-name="period" unicode="." horiz-adv-x="422" 
d="M89 110q0 26 9.5 49t26 40t39.5 27t49 10t49 -10t40 -27t26.5 -40t9.5 -49q0 -27 -9.5 -49.5t-26.5 -39.5t-40 -26.5t-49 -9.5t-49 9.5t-39.5 26.5t-26 39.5t-9.5 49.5z" />
    <glyph glyph-name="slash" unicode="/" horiz-adv-x="841" 
d="M206 -21q-14 -35 -41.5 -52t-56.5 -17h-75l601 1497q13 32 37 49t57 17h75z" />
    <glyph glyph-name="zero" unicode="0" horiz-adv-x="1179" 
d="M1110 716q0 -188 -40.5 -325.5t-110.5 -227.5t-165.5 -134t-204.5 -44q-110 0 -204.5 44t-164.5 134t-110 227.5t-40 325.5t40 326t110 228.5t164.5 134.5t204.5 44q109 0 204.5 -44t165.5 -134.5t110.5 -228.5t40.5 -326zM925 716q0 164 -27.5 275.5t-74 179.5
t-107.5 97.5t-127 29.5t-127 -29.5t-107 -97.5t-73.5 -179.5t-27.5 -275.5t27.5 -275t73.5 -179t107 -97.5t127 -29.5t127 29.5t107.5 97.5t74 179t27.5 275z" />
    <glyph glyph-name="one" unicode="1" horiz-adv-x="931" 
d="M863 115q28 -6 28 -35v-80h-768v59v21q0 29 28 35l280 21v977q0 44 3 89l-256 -219q-19 -15 -36 -15q-33 0 -48 22l-56 77l426 369h145v-1300q237 -18 254 -21z" />
    <glyph glyph-name="two" unicode="2" horiz-adv-x="1063" 
d="M1003 124v-124h-954v61q0 19 7.5 39.5t24.5 36.5l459 461q57 58 104 112q47 53 80.5 107.5t51.5 109.5t18 118.5t-20 110.5t-55 78t-82 46.5t-101 15.5t-100 -16t-81.5 -44.5t-60 -67.5t-34.5 -86q-8 -29 -24 -42t-42 -13q-5 0 -10.5 0.5t-12.5 1.5l-93 16q14 99 54 174
t101.5 126t141 77.5t171.5 26.5q91 0 170 -27t136.5 -78.5t90.5 -125t33 -168.5q0 -80 -24 -148t-65 -130t-94.5 -121t-113.5 -120l-377 -386q40 11 81 18q41 6 79 6h393q8 106 10 116q3 15 15 24.5t27 9.5h96v-164v-31z" />
    <glyph glyph-name="three" unicode="3" horiz-adv-x="1060" 
d="M552 1449q91 0 168 -26t132.5 -74t86.5 -116t31 -151q0 -68 -17.5 -121.5t-50 -94t-78.5 -68.5t-103 -45q140 -37 210.5 -124t70.5 -218q0 -99 -37.5 -178t-102.5 -134.5t-151.5 -85t-185.5 -29.5q-114 0 -195 28.5t-137 78.5t-92 118.5t-61 148.5l76 32q21 9 42 9
q20 0 35.5 -8.5t23.5 -26.5q2 -4 4 -8.5t4 -9.5q14 -29 34 -65.5t54 -68.5t84.5 -54t125.5 -22t131.5 24.5t94 63.5t56.5 87t19 95q0 58 -15.5 106t-56 83t-112 55t-183.5 20v129q91 1 155.5 20t105.5 52t59.5 79t18.5 102q0 62 -19.5 108t-53.5 76t-80.5 45t-100.5 15
t-100 -16t-81.5 -44.5t-59.5 -68t-36 -85.5q-8 -29 -24 -42t-41 -13q-5 0 -10.5 0.5t-12.5 1.5l-93 16q14 98 54 173.5t101.5 126.5t141 77.5t171.5 26.5z" />
    <glyph glyph-name="four" unicode="4" horiz-adv-x="1169" 
d="M910 517h217v-102q0 -16 -9.5 -27t-29.5 -11h-178v-377h-157v377h-635q-20 0 -34.5 11.5t-18.5 28.5l-18 91l697 925h166v-916zM753 1108q0 26 1.5 56t6.5 62l-521 -709h513v591z" />
    <glyph glyph-name="five" unicode="5" horiz-adv-x="1015" 
d="M911 1355q0 -38 -24 -62.5t-81 -24.5h-450l-66 -376q112 24 207 24q112 0 197.5 -33t143.5 -91t87.5 -137t29.5 -172q0 -114 -40 -206t-109.5 -157.5t-163.5 -100.5t-203 -35q-63 0 -121 12.5t-108 33.5t-93 48t-76 57l54 76q18 26 48 26q19 0 44.5 -15.5t61.5 -34.5
t84.5 -34.5t115.5 -15.5q75 0 135 24t102.5 68.5t65.5 106.5t23 139q0 67 -19.5 121t-59 92t-98.5 59t-138 21q-54 0 -112 -9t-120 -29l-112 33l116 670h679v-78z" />
    <glyph glyph-name="six" unicode="6" horiz-adv-x="1075" 
d="M598 878q86 0 163 -28.5t135 -83t92 -134t34 -181.5q0 -99 -36 -184t-100.5 -148t-155.5 -99t-200 -36q-108 0 -195.5 34.5t-149.5 98t-95.5 154t-33.5 202.5q0 94 42 200t133 228l363 489q14 18 39 30.5t57 12.5h158l-497 -629q51 35 113 54.5t134 19.5zM228 442
q0 -69 20 -126t58.5 -98t94 -63.5t126.5 -22.5q72 0 130 23t99.5 64t64 97t22.5 122q0 70 -22 126.5t-62 96t-96 60.5t-123 21q-72 0 -130 -24.5t-98.5 -66t-62 -96t-21.5 -113.5z" />
    <glyph glyph-name="seven" unicode="7" horiz-adv-x="1086" 
d="M62 1433h974v-80q0 -50 -23 -93l-593 -1197q-32 -63 -98 -63h-127l602 1182q28 53 57 86h-640q-11 -137 -14 -150q-7 -34 -41 -34h-97v349z" />
    <glyph glyph-name="eight" unicode="8" horiz-adv-x="1075" 
d="M539 -16q-107 0 -196 28.5t-153 81.5t-99 128.5t-35 169.5q0 138 72 227.5t206 127.5q-113 42 -170.5 125.5t-57.5 199.5q0 79 31 148t88 120t136.5 80t177.5 29q97 0 177 -29t137 -80t88 -120t31 -148q0 -116 -58 -199.5t-170 -125.5q134 -38 206 -127.5t72 -227.5
q0 -94 -35.5 -169.5t-99 -128.5t-152.5 -81.5t-196 -28.5zM539 126q70 0 125.5 19.5t94 55t59 85t20.5 109.5q0 74 -24.5 126.5t-66 85.5t-95.5 48.5t-113 15.5t-113 -15.5t-95.5 -48.5t-66 -85.5t-24.5 -126.5q0 -60 20.5 -109.5t59 -85t94 -55t125.5 -19.5zM539 814
q70 0 119.5 21.5t80.5 57t45 81.5t14 95q0 50 -16.5 94t-49 77t-81 52t-112.5 19t-112.5 -19t-81 -52t-49 -77t-16.5 -94q0 -49 14 -95t45 -81.5t80.5 -57t119.5 -21.5z" />
    <glyph glyph-name="nine" unicode="9" horiz-adv-x="1045" 
d="M457 588q-81 0 -153.5 27t-127.5 79.5t-87.5 129t-32.5 175.5q0 94 35 176t98 143t150 96t191 35q103 0 187 -34t144 -95t92.5 -146t32.5 -188q0 -62 -11.5 -117.5t-33.5 -108.5t-52.5 -105.5t-69.5 -108.5l-349 -504q-13 -19 -37 -30.5t-55 -11.5h-164l436 571
q22 29 41 55t36 52q-55 -44 -124 -67t-146 -23zM815 1007q0 67 -21.5 121.5t-59.5 92.5t-90.5 58.5t-115.5 20.5q-66 0 -120.5 -21.5t-93 -59.5t-59.5 -91t-21 -116q0 -68 19.5 -121.5t56 -90.5t89 -56t117.5 -19q72 0 127.5 23.5t93.5 62.5t58 90t20 106z" />
    <glyph glyph-name="colon" unicode=":" horiz-adv-x="414" 
d="M85 110q0 26 9.5 49t26 40t39.5 27t49 10t49 -10t40 -27t26.5 -40t9.5 -49q0 -27 -9.5 -49.5t-26.5 -39.5t-40 -26.5t-49 -9.5t-49 9.5t-39.5 26.5t-26 39.5t-9.5 49.5zM85 860q0 26 9.5 49t26 40t39.5 27t49 10t49 -10t40 -27t26.5 -40t9.5 -49q0 -27 -9.5 -49.5
t-26.5 -39.5t-40 -26.5t-49 -9.5t-49 9.5t-39.5 26.5t-26 39.5t-9.5 49.5z" />
    <glyph glyph-name="semicolon" unicode=";" horiz-adv-x="413" 
d="M91 123q0 23 8.5 43.5t24 36t37.5 24.5t48 9q30 0 53.5 -11t39 -30.5t23.5 -45t8 -55.5q0 -45 -13 -93.5t-37 -96t-59.5 -92.5t-80.5 -83l-30 29q-13 12 -13 28q0 13 14 27q10 11 25.5 29.5t31.5 42.5t29.5 53t19.5 62h-13q-26 0 -47 9t-36.5 25.5t-24 39t-8.5 49.5z
M85 860q0 26 9.5 49t26 40t39.5 27t49 10t49 -10t40 -27t26.5 -40t9.5 -49q0 -27 -9.5 -49.5t-26.5 -39.5t-40 -26.5t-49 -9.5t-49 9.5t-39.5 26.5t-26 39.5t-9.5 49.5z" />
    <glyph glyph-name="less" unicode="&#x3c;" horiz-adv-x="909" 
d="M61 710l774 401v-127q0 -17 -8 -29.5t-28 -22.5l-449 -228q-20 -11 -42.5 -18.5t-47.5 -13.5q25 -5 47.5 -13t42.5 -18l449 -227q20 -10 28 -23t8 -29v-128l-774 402v74z" />
    <glyph glyph-name="equal" unicode="=" horiz-adv-x="1052" 
d="M97 574h859v-135h-859v135zM97 909h859v-135h-859v135z" />
    <glyph glyph-name="greater" unicode="&#x3e;" horiz-adv-x="911" 
d="M77 234v128q0 16 8 29t28 23l449 227q20 10 41.5 18t46.5 13q-25 6 -46.5 13.5t-41.5 18.5l-449 228q-20 10 -28 22.5t-8 29.5v127l773 -401v-74z" />
    <glyph glyph-name="question" unicode="?" horiz-adv-x="822" 
d="M43 1305q31 29 68.5 55t82 46t96 31.5t111.5 11.5q79 0 146.5 -23t116.5 -65t77 -102t28 -135q0 -76 -22.5 -131t-57 -96.5t-75.5 -72t-76.5 -57.5t-61 -54t-29.5 -60l-18 -153h-122l-12 166v11q0 42 22.5 74.5t57 61t74 57t74 63t57 78.5t22.5 104q0 43 -17 78t-46 59.5
t-68.5 37.5t-84.5 13q-61 0 -104.5 -15t-73.5 -33t-48.5 -33t-30.5 -15q-25 0 -39 23zM239 110q0 26 9.5 49t26 40t39.5 27t49 10t49 -10t40 -27t26.5 -40t9.5 -49q0 -27 -9.5 -49.5t-26.5 -39.5t-40 -26.5t-49 -9.5t-49 9.5t-39.5 26.5t-26 39.5t-9.5 49.5z" />
    <glyph glyph-name="at" unicode="@" horiz-adv-x="1599" 
d="M1142 186q-78 0 -127 37.5t-62 115.5q-58 -81 -126 -116t-146 -35q-60 0 -104 20.5t-73.5 57t-44 86.5t-14.5 108q0 85 32.5 171.5t96.5 156t159.5 113.5t220.5 44q67 0 117.5 -10.5t95.5 -30.5l-93 -361q-19 -75 -19 -124q0 -36 9 -59.5t24.5 -37t36 -18.5t43.5 -5
q49 0 93 28t77.5 79t53 122.5t19.5 158.5q0 138 -44.5 242t-122 173.5t-183 104t-227.5 34.5q-134 0 -251 -51t-204 -141t-137 -213t-50 -268q0 -170 53.5 -298.5t146 -215.5t217 -131t267.5 -44q152 0 268.5 33t201.5 84q15 9 27 9q21 0 31 -24l25 -66
q-107 -72 -243.5 -113t-309.5 -41t-322 55t-258.5 158.5t-172 253.5t-62.5 340q0 109 27.5 210t77.5 188.5t120 160t156 124t185 80t207 28.5q92 0 180 -20t166.5 -59t144.5 -96.5t113.5 -132t74 -166t26.5 -198.5q0 -108 -30.5 -199.5t-84 -158.5t-126 -105t-156.5 -38z
M716 306q31 0 62.5 10t61 35t54 68t41.5 108l76 295q-39 9 -85 9q-75 0 -137.5 -31.5t-107.5 -82.5t-70.5 -117t-25.5 -135q0 -72 33 -115.5t98 -43.5z" />
    <glyph glyph-name="A" unicode="A" 
d="M1470 112q26 -6 26 -33v-79h-411v79q0 27 27 34l82 23l-112 289h-618l-112 -289l82 -23q27 -7 27 -34v-79h-411v79q0 27 26 33l80 24l519 1297h197l518 -1297zM518 565h510l-212 550q-22 54 -43 135q-24 -88 -42 -136z" />
    <glyph glyph-name="B" unicode="B" horiz-adv-x="1260" 
d="M904 737q317 -63 317 -329q0 -185 -131 -295q-135 -113 -372 -113h-651v86q0 31 30 37l114 23v1141q-96 19 -114 23q-30 6 -30 37v86h601q383 0 476 -217q29 -70 29 -140t-16.5 -119t-49.5 -91q-71 -88 -203 -129zM405 1280v-489h256q239 0 300 145q19 46 19 100
q0 126 -76 185t-236 59h-263zM715 154q239 0 297 155q18 47 18 104q0 111 -78.5 175.5t-237.5 64.5h-309v-499h310z" />
    <glyph glyph-name="C" unicode="C" horiz-adv-x="1271" 
d="M775 1449q170 0 443 -103v-112v-222h-97q-34 0 -41 34q-3 12 -9 91t-7 90q-448 142 -675 -98q-146 -154 -146 -413q0 -260 144 -416q136 -149 353 -149q125 0 189 24q98 36 177 106q17 15 33 15t29 -13l76 -83q-186 -216 -516 -216q-308 0 -496 204q-187 202 -187 528
q0 325 200 529t530 204z" />
    <glyph glyph-name="D" unicode="D" horiz-adv-x="1486" 
d="M1435 716q0 -161 -51 -293t-144 -226q-195 -197 -511 -197h-661v86q0 31 30 37l114 23v1141q-96 19 -114 23q-30 6 -30 37v86h661q317 0 511 -197q195 -199 195 -520zM1236 716q0 132 -36 236t-102 176q-135 148 -369 148h-322v-1119h322q233 0 369 148q138 149 138 411z
" />
    <glyph glyph-name="E" unicode="E" horiz-adv-x="1174" 
d="M68 1433h1027v-346h-96q-35 0 -42 35q-2 9 -14 153h-536v-476h528v-152h-528v-489h537q11 133 13 142q7 34 42 34h96v-334h-1027v86q0 31 30 37l114 23v1141q-96 19 -114 23q-30 6 -30 37v86z" />
    <glyph glyph-name="F" unicode="F" horiz-adv-x="1169" 
d="M212 1433h917v-346h-97q-34 0 -41 35q-2 9 -14 153h-570v-501h544v-158h-544v-470q25 -5 114 -23q30 -6 30 -37v-86h-483v86q0 31 30 37l114 23v1141q-96 19 -114 23q-30 6 -30 37v86h144z" />
    <glyph glyph-name="G" unicode="G" horiz-adv-x="1368" 
d="M768 141q196 0 355 84v316h-222q-19 0 -30.5 11t-11.5 27v110h440v-550q-215 -155 -545 -155q-312 0 -510 203q-199 205 -199 529q0 330 198 530q201 203 535 203q233 0 506 -103v-334h-96q-35 0 -42 34q-2 15 -15 181q-47 15 -76 23q-113 31 -258.5 31t-243.5 -39.5
t-167 -112.5q-143 -153 -143 -413q0 -268 147 -423q144 -152 378 -152z" />
    <glyph glyph-name="H" unicode="H" horiz-adv-x="1579" 
d="M1487 1310l-114 -23v-1141q97 -19 121 -24t24 -36v-86h-484v86q0 31 30 37l114 23v506h-772v-506q144 -29 144 -60v-86h-483v86q0 31 30 37l114 23v1141q-96 19 -120 24t-24 36v86h483v-86q0 -31 -21.5 -35.5t-122.5 -24.5v-493h772v493q-96 19 -120 24t-24 36v86h484
v-86q0 -31 -31 -37z" />
    <glyph glyph-name="I" unicode="I" horiz-adv-x="611" 
d="M519 1310l-114 -23v-1141q97 -19 121 -24t24 -36v-86h-483v86q0 31 30 37l114 23v1141q-96 19 -120 24t-24 36v86h483v-86q0 -31 -31 -37z" />
    <glyph glyph-name="J" unicode="J" horiz-adv-x="884" 
d="M237 146q277 0 277 345v796q-115 19 -133 23q-30 6 -30 37v86h500v-86q0 -31 -30 -37l-114 -23v-792q0 -369 -258 -476q-84 -35 -187 -35t-208 28q9 127 21.5 139.5t32 12.5t49.5 -9t80 -9z" />
    <glyph glyph-name="K" unicode="K" horiz-adv-x="1421" 
d="M1339 118q30 -6 30 -37v-81h-470v80q0 29 28 35q11 2 92 18l-415 477q-35 38 -61.5 42t-50.5 4h-88v-510q33 -7 114 -23q31 -6 31 -37v-86h-482v86q0 31 30 37l114 23v1141q-96 19 -114 23q-30 6 -30 37v86h482v-86q0 -31 -31 -37q-91 -19 -114 -23v-482h73q67 0 103 42
l401 454q-71 14 -87 17q-28 6 -28 35v80h451l3 -76q0 -31 -30 -37q-17 -4 -93 -23l-426 -481q-44 -49 -79 -65q44 -14 93 -72l453 -540q84 -17 101 -21z" />
    <glyph glyph-name="L" unicode="L" horiz-adv-x="1140" 
d="M1071 312v-312h-46h-18h-796h-144v86q0 9 4 17t11 13.5t15 6.5l114 23v1141q-96 19 -114 23q-13 2 -21.5 12.5t-8.5 24.5v86h144h194h144v-86q0 -14 -8.5 -24.5t-21.5 -12.5q-82 -17 -114 -23v-1124h517q9 105 11 115q3 14 14.5 24t26.5 10h97z" />
    <glyph glyph-name="M" unicode="M" horiz-adv-x="1908" 
d="M375 1150q6 -52 6 -97v-907q108 -18 135.5 -23.5t27.5 -36.5v-86h-477v86q0 31 30 37l114 23v1141q-96 19 -114 23q-30 6 -30 37v86h287q26 0 40 -5t27 -28l495 -882q18 -30 45 -104q21 58 46 105l485 881q13 23 27 28t40 5h288v-86q0 -31 -31 -37q-113 -23 -114 -23
v-1141q97 -19 114 -23q31 -6 31 -37v-86h-478v86q0 31 29 37t134 23v907q0 44 4 94l-491 -896q-25 -45 -70 -45h-28q-45 0 -70 45z" />
    <glyph glyph-name="N" unicode="N" horiz-adv-x="1552" 
d="M1209 320q-5 43 -5 98v869q-117 20 -133 23q-30 6 -30 37v86h163h170h145v-86q0 -31 -31 -37l-114 -23v-1287h-98q-41 0 -69 35l-829 1079q4 -51 4 -93v-875q118 -20 133 -23q30 -6 30 -37v-86h-477v86q0 31 30 37l114 23v1141q-96 19 -114 23q-30 6 -30 37v86h244
q26 0 38.5 -6.5t28.5 -26.5z" />
    <glyph glyph-name="O" unicode="O" horiz-adv-x="1509" 
d="M1458 716q0 -161 -51 -295.5t-144 -231.5t-223.5 -150.5t-288.5 -53.5t-288 53.5t-223 150.5t-144 231.5t-51 295.5t51 295.5t144 232t223 151.5t288 54t288.5 -54t223.5 -151.5t144 -232t51 -295.5zM1259 716q0 132 -36 237t-102 177.5t-160 111.5t-210 39
q-115 0 -209 -39t-160.5 -111.5t-102.5 -177.5t-36 -237t36 -236.5t102.5 -177t160.5 -111t209 -38.5q116 0 210 38.5t160 111t102 177t36 236.5z" />
    <glyph glyph-name="P" unicode="P" horiz-adv-x="1183" 
d="M845 1402q297 -94 297 -413q0 -204 -137 -326q-143 -127 -397 -127h-203v-390q19 -4 114 -23q30 -6 30 -37v-86h-481v86q0 31 30 37l114 23v1141q-96 19 -114 23q-30 6 -30 37v86h540q136 0 237 -31zM948 989.5q0 136.5 -84.5 213.5t-255.5 77h-203v-590h203
q162 0 251 81.5t89 218z" />
    <glyph glyph-name="Q" unicode="Q" horiz-adv-x="1539" 
d="M1458 716q0 -101 -20.5 -192t-59.5 -169.5t-95 -142.5t-126 -111l368 -397h-160q-36 0 -64 10t-51 35l-252 274q-57 -18 -118.5 -28t-128.5 -10q-158 0 -288 53.5t-223 150.5t-144 231.5t-51 295.5t51 295.5t144 232t223 151.5t288 54t288.5 -54t223.5 -151.5t144 -232
t51 -295.5zM1259 716q0 132 -36 237t-102 177.5t-160 111.5t-210 39q-115 0 -209 -39t-160.5 -111.5t-102.5 -177.5t-36 -237t36 -236.5t102.5 -177t160.5 -111t209 -38.5q116 0 210 38.5t160 111t102 177t36 236.5z" />
    <glyph glyph-name="R" unicode="R" horiz-adv-x="1338" 
d="M1256 123q13 -2 22 -12.5t9 -24.5v-86h-36h-109h-63q-53 0 -78 41l-372 512q-17 24 -37 34.5t-60 10.5h-128v-452q24 -5 114 -23q13 -2 22 -12.5t9 -24.5v-86h-145h-193h-144v86q0 14 8.5 24.5t21.5 12.5l114 23v1141q-96 19 -114 23q-13 2 -21.5 12.5t-8.5 24.5v86h144
h386q136 0 235 -27.5t163.5 -79.5t95.5 -125.5t31 -164.5q0 -76 -24 -142t-69.5 -118.5t-111 -89.5t-148.5 -56q36 -21 64 -61l311 -423q104 -21 112 -23zM588 739q85 0 149.5 20.5t108 58t65.5 89.5t22 115q0 128 -84.5 193t-251.5 65h-193v-541h184z" />
    <glyph glyph-name="S" unicode="S" horiz-adv-x="1013" 
d="M751 758q217 -98 217 -323q0 -196 -125 -320q-133 -131 -355 -131q-93 0 -196.5 19t-161.5 38l-57 20v359h97q34 0 41 -34q3 -13 9.5 -99t6.5 -87q148 -55 242 -55t148 19t92 54q77 71 77 189q0 114 -107 176q-48 28 -109 48q-190 59 -252 86.5t-110 70.5
q-107 96 -107 267q0 160 115 273q123 121 319.5 121t401.5 -82v-329h-97q-35 0 -41 34q-2 6 -16 178q-134 38 -236 38q-126 0 -198 -65q-68 -60 -68 -158q0 -105 108 -167q48 -28 111 -49q180 -60 251 -91z" />
    <glyph glyph-name="T" unicode="T" horiz-adv-x="1258" 
d="M1192 1433h27v-317h-97q-35 0 -39 21t-17 133h-337v-1124q1 0 25 -5q77 -15 98.5 -19.5t21.5 -35.5v-86h-483v86q0 31 33.5 38t110.5 22v1124h-338q-14 -113 -18 -133.5t-38 -20.5h-97v317h1079h69z" />
    <glyph glyph-name="U" unicode="U" horiz-adv-x="1499" 
d="M1321 1433h145v-86q0 -31 -31 -37l-114 -23v-725q0 -253 -152 -414q-157 -165 -418 -165q-260 0 -418 165q-153 161 -153 414v725q-96 19 -114 23q-30 6 -30 37v86h501v-86q0 -31 -31 -37q-15 -3 -133 -23v-724q0 -183 100 -294q103 -115 278 -115t278 114q99 111 99 294
v725q-117 20 -132 23q-31 6 -31 37v86h163h193z" />
    <glyph glyph-name="V" unicode="V" horiz-adv-x="1559" 
d="M1046 1433h477v-86q0 -31 -30 -37l-100 -23l-525 -1287h-175l-524 1287q-83 19 -101 23q-30 6 -30 37v86h476v-86q0 -31 -39.5 -39t-104.5 -21l365 -911q21 -50 48 -157q22 102 44 157l363 911q-96 19 -114 23q-30 6 -30 37v86z" />
    <glyph glyph-name="W" unicode="W" horiz-adv-x="2251" 
d="M2131 1433h85v-86q0 -31 -30 -37l-100 -23l-402 -1287h-174l-363 1093q-11 31 -20 72q-5 -18 -9.5 -37.5t-9.5 -34.5l-365 -1093h-174l-401 1287q-83 19 -101 23q-30 6 -30 37v86h486v-86q0 -31 -30 -37q-102 -21 -114 -23l266 -896q13 -45 27 -123q18 89 30 123l337 996
q6 17 23.5 31.5t42.5 14.5h56q50 0 66 -46l335 -996q18 -52 32 -119q6 32 11 62.5t13 56.5l267 896q-12 2 -113 23q-31 6 -31 37v86h390z" />
    <glyph glyph-name="X" unicode="X" horiz-adv-x="1509" 
d="M1420 123q30 -6 30 -37v-86h-527v86q0 31 30 37q11 2 62 12.5t52 10.5l-314 492q-7 -21 -18 -40l-302 -452q8 -2 114 -23q30 -6 30 -37v-86h-515v86q0 31 30 37q7 2 133 23l396 590l-374 551q-116 19 -133 23q-31 6 -31 37v86h511v-86q0 -31 -32 -37.5t-97 -19.5
l299 -458q6 21 21 46l275 409q-38 8 -114 23q-30 6 -30 37v86h514v-86q0 -31 -25 -36t-138 -24l-374 -542l394 -599q116 -19 133 -23z" />
    <glyph glyph-name="Y" unicode="Y" horiz-adv-x="1402" 
d="M883 1433h482v-86q0 -31 -25.5 -36t-105.5 -24l-437 -717v-424q14 -3 114 -23q30 -6 30 -37v-86h-144h-193h-144v86q0 31 30 37l114 23v424l-436 717q-74 18 -102 23.5t-28 36.5v86h482v-86q0 -31 -31 -37q-102 -21 -113 -23l268 -456q32 -56 58 -127q27 76 57 127
l268 456q-12 2 -114 23q-30 6 -30 37v86z" />
    <glyph glyph-name="Z" unicode="Z" horiz-adv-x="1215" 
d="M1127 1297l-811 -1139h666q11 145 14 157q7 34 41 34h97v-191v-158h-1072v76q0 30 19 57l812 1142h-641q-11 -144 -14 -157q-7 -34 -41 -34h-97v191v158h1048v-72q0 -34 -21 -64z" />
    <glyph glyph-name="bracketleft" unicode="[" horiz-adv-x="520" 
d="M111 -289v1822h368v-70q0 -22 -13.5 -34.5t-35.5 -12.5h-169v-1587h169q22 0 35.5 -12.5t13.5 -35.5v-70h-368z" />
    <glyph glyph-name="backslash" unicode="\" horiz-adv-x="844" 
d="M42 1473h76q33 0 57 -17t37 -49l601 -1497h-75q-29 0 -57 17t-41 52z" />
    <glyph glyph-name="bracketright" unicode="]" horiz-adv-x="519" 
d="M42 -219q0 20 13.5 34t35.5 14h169v1587h-169q-22 0 -35.5 13.5t-13.5 33.5v70h368v-1822h-368v70z" />
    <glyph glyph-name="asciicircum" unicode="^" horiz-adv-x="943" 
d="M414 1433h115l358 -646h-129q-17 0 -29 10t-20 24l-196 352q-13 23 -22.5 44.5t-16.5 42.5q-14 -44 -37 -87l-194 -352q-8 -14 -19.5 -24t-31.5 -10h-136z" />
    <glyph glyph-name="underscore" unicode="_" horiz-adv-x="1027" 
d="M906 -165v-120h-788v120h788z" />
    <glyph glyph-name="grave" unicode="`" horiz-adv-x="542" 
d="M242 1449q33 0 49 -10.5t30 -33.5l149 -242h-102q-21 0 -34 6.5t-27 21.5l-234 258h169z" />
    <glyph glyph-name="a" unicode="a" horiz-adv-x="1027" 
d="M944 125q13 -2 21.5 -12.5t8.5 -24.5v-86h-129h-15h-64q-26 0 -42 8t-21 34l-20 94q-41 -36 -78.5 -64.5t-80 -48t-89.5 -29.5t-105 -10q-59 0 -110.5 16.5t-89.5 49.5t-60.5 84t-22.5 120q0 60 33 116t106.5 99t192.5 70.5t291 27.5v79q0 119 -50.5 180t-149.5 61
q-65 0 -109.5 -16.5t-77.5 -37.5q-33 -20 -56 -37q-23 -16 -46 -16q-18 0 -31.5 9.5t-21.5 23.5l-32 57q84 81 181 121t215 40q85 0 151 -28t111 -78t68 -121t23 -156v-505q97 -19 99 -20zM670 247v209q-123 0 -209 -15.5t-140 -41t-78.5 -59.5t-24.5 -76q0 -40 13 -69.5
t35 -48t52 -27t65 -8.5q47 0 86 9.5t73.5 27t66 42.5t61.5 57z" />
    <glyph glyph-name="b" unicode="b" horiz-adv-x="1130" 
d="M1084 513v-1v-2v-3q0 -124 -34.5 -221t-94.5 -163.5t-141.5 -101.5t-176.5 -35q-80 0 -192 14t-183 28l-72 14v17v145v1124q-112 19 -128 22q-8 2 -15 7t-11 13t-4 17v86h158h6h173v-606q63 73 144.5 117.5t186.5 44.5q88 0 159 -33t121 -98.5t77 -162t27 -222.5z
M821 223.5q38 48.5 59 120.5q19 63 20 154v15q0 99 -17.5 170t-50.5 116.5t-81 66.5t-109 21q-87 0 -152.5 -40t-120.5 -113v-236v-254v-86q105 -27 200 -32q20 -1 38 -1h13q60 2 109 25q54 25 92 73.5z" />
    <glyph glyph-name="c" unicode="c" horiz-adv-x="906" 
d="M865 142q-127 -156 -374 -156q-195 0 -318 137q-129 142 -129 384q0 233 123 375q129 147 354 147q116 0 300 -74v-263h-80q-29 0 -34 28q-3 11 -8 75t-5 67q-48 15 -74 19q-58 9 -112.5 8t-109.5 -26.5t-94 -75.5q-77 -101 -77 -280q0 -181 80 -284q78 -99 215 -99
q125 0 223 84q18 16 38.5 16t31.5 -17z" />
    <glyph glyph-name="d" unicode="d" horiz-adv-x="1129" 
d="M483 1031q168 0 277 -120v416q-102 16 -133 22.5t-31 37.5v86h342v-1327q96 -19 114 -23q30 -6 30 -37v-86h-250q-38 0 -48 37l-16 123q-143 -174 -340 -174q-178 0 -279 132q-104 135 -104 385q0 230 117 376q120 152 321 152zM487 130q158 0 273 153v490
q-88 119 -233.5 119t-221.5 -101t-76 -288q0 -287 148 -352q48 -21 110 -21z" />
    <glyph glyph-name="e" unicode="e" horiz-adv-x="985" 
d="M516 1029q91 0 168 -30.5t133 -88t87.5 -142t31.5 -192.5q0 -42 -9 -56t-34 -14h-674q2 -96 26 -167t66 -118.5t100 -71t130 -23.5q67 0 115.5 15.5t83.5 33.5t58.5 33.5t40.5 15.5q22 0 34 -17l50 -65q-33 -40 -79 -69.5t-98.5 -48.5t-108.5 -28.5t-111 -9.5
q-105 0 -193.5 35.5t-153 104t-100.5 169.5t-36 232q0 106 32.5 198t93.5 159.5t149 106t198 38.5zM520 898q-129 0 -203 -74.5t-92 -206.5h551q0 62 -17 113.5t-50 89t-80.5 58t-108.5 20.5z" />
    <glyph glyph-name="f" unicode="f" horiz-adv-x="744" 
d="M594 1317q-204 0 -204 -231v-93h293v-129h-287v-718q118 -20 133 -23q30 -6 30 -37v-86h-497v86q0 31 31 37l124 23v715l-112 13q-48 11 -48 46v73h160v98q0 172 94 269q93 94 254 94q68 0 126 -20l-4 -89q-1 -20 -17 -24t-45 -4h-31z" />
    <glyph glyph-name="g" unicode="g" horiz-adv-x="1014" 
d="M462 1030q66 0 123.5 -14.5t104.5 -42.5h275v-66q0 -33 -42 -42l-115 -16q34 -65 34 -145q0 -74 -28.5 -134.5t-79 -103.5t-120 -66t-152.5 -23q-71 0 -134 17q-32 -20 -48.5 -43t-16.5 -45q0 -36 29 -54.5t77 -26.5t109 -10t124.5 -6.5t124.5 -15.5t109 -36t77 -69
t29 -114q0 -65 -32.5 -126t-93.5 -108.5t-149 -76t-199 -28.5t-194.5 22t-138.5 59t-82.5 85.5t-27.5 101.5q0 75 47.5 127.5t130.5 83.5q-43 20 -68.5 53.5t-25.5 89.5q0 22 8 45.5t24.5 46.5t40.5 44t56 37q-75 42 -117.5 111.5t-42.5 162.5q0 74 28.5 134.5t79.5 103
t121.5 65.5t154.5 23zM778 -55q0 38 -21 61t-57 35.5t-83 18.5t-99 8.5t-106 5.5t-103 11q-57 -27 -92.5 -66t-35.5 -93q0 -34 17.5 -63.5t53.5 -51t90.5 -34t128.5 -12.5q72 0 129 13t96.5 37t60.5 57t21 73zM462 495q54 0 95.5 15t69.5 42t42 64.5t14 82.5q0 93 -56.5 148
t-164.5 55q-107 0 -163.5 -55t-56.5 -148q0 -45 14.5 -82.5t42.5 -64.5t69 -42t94 -15z" />
    <glyph glyph-name="h" unicode="h" horiz-adv-x="1251" 
d="M391 877q143 152 326 152q164 0 252 -105q87 -103 87 -279v-499q96 -19 114 -23q30 -6 30 -37v-86h-322v645q0 242 -213 242q-148 0 -274 -141v-600l25 -5q78 -15 89 -18q30 -6 30 -37v-86h-466v86q0 31 30 37l114 23v1181q-116 19 -134 23q-30 6 -30 37v86h342v-596z
" />
    <glyph glyph-name="i" unicode="i" horiz-adv-x="579" 
d="M208.5 1242.5q-17.5 17.5 -27.5 40t-10 48.5t10 49.5t27.5 41t40 27.5t48.5 10t49 -10t40.5 -27.5t28 -41t10.5 -49.5t-10.5 -48.5t-28 -40t-40.5 -27.5t-49 -10t-48.5 10t-40 27.5zM499 123q13 -2 22 -12.5t9 -24.5v-86h-467v86q0 14 8.5 24.5t21.5 12.5l114 23v721
q-96 19 -114 23q-13 2 -21.5 12.5t-8.5 24.5v86h322v-867q97 -19 114 -23z" />
    <glyph glyph-name="j" unicode="j" horiz-adv-x="517" 
d="M441.5 1380.5q10.5 -23.5 10.5 -49.5t-10.5 -48.5t-28 -40t-40.5 -27.5t-49 -10t-48.5 10t-40 27.5t-27.5 40t-10 48.5t10 49.5t27.5 41t40 27.5t48.5 10t49 -10t40.5 -27.5t28 -41zM257 -342q-55 -22 -123 -22t-122 20l8 96q3 20 31 20h39q78 0 111 36.5t33 117.5v941
q-32 6 -114 23q-30 6 -30 37v86h144h178v-1088q0 -202 -155 -267z" />
    <glyph glyph-name="k" unicode="k" horiz-adv-x="1157" 
d="M1071 123q31 -6 31 -37v-86h-189q-39 0 -67 35l-333 415q-15 21 -30 27.5t-45 6.5h-50v-338q11 -2 114 -23q30 -6 30 -37v-86h-467v86q0 31 30 37l114 23v1181q-96 19 -114 23q-30 6 -30 37v86h144h179v-867h46q36 0 62 28l228 245q-10 2 -22 4q-22 4 -33 7q-31 6 -31 37
v86h248h162h12v-86q0 -31 -25 -36t-124 -24l-236 -251q-30 -37 -58 -53q34 -22 60 -63l281 -354l52 -10q51 -11 61 -13z" />
    <glyph glyph-name="l" unicode="l" horiz-adv-x="580" 
d="M501 123q31 -6 31 -37v-86h-467v86q0 31 30 37l114 23v1181q-96 19 -114 23q-30 6 -30 37v86h322v-1327q97 -19 114 -23z" />
    <glyph glyph-name="m" unicode="m" horiz-adv-x="1781" 
d="M378 872q128 157 287 157q103 0 166.5 -57t91.5 -154q40 105 133 161q83 50 176.5 50t156 -25.5t106.5 -74.5q89 -101 89 -284v-499q97 -19 114 -23q31 -6 31 -37v-86h-323v645q0 119 -52 180.5t-151 61.5q-92 0 -153 -61q-65 -65 -65 -181v-499q17 -3 114 -23
q30 -6 30 -37v-86h-322v645q0 242 -192 242q-124 0 -226 -132v-609l53 -10q53 -11 61 -13q31 -6 31 -37v-86h-467v86q0 31 30 37l114 23v721q-96 19 -114 23q-30 6 -30 37v86h144h106q38 0 48 -37z" />
    <glyph glyph-name="n" unicode="n" horiz-adv-x="1251" 
d="M379 866q148 163 336 163q164 0 253 -106q86 -102 86 -278v-499q97 -19 114 -23q31 -6 31 -37v-86h-323v645q0 242 -213 242q-148 0 -274 -141v-600q7 -1 114 -23q31 -6 31 -37v-86h-467v86q0 31 30 37l114 23v721q-96 19 -114 23q-30 6 -30 37v86h144h106q38 0 48 -37z
" />
    <glyph glyph-name="o" unicode="o" horiz-adv-x="1056" 
d="M528 1029q111 0 200.5 -37t152 -105t96 -164.5t33.5 -215.5q0 -120 -33.5 -216t-96 -164t-152 -104.5t-200.5 -36.5t-200.5 36.5t-152.5 104.5t-97 164t-34 216q0 119 34 215.5t97 164.5t152.5 105t200.5 37zM528 125q150 0 224 100.5t74 280.5q0 181 -74 282t-224 101
q-76 0 -132 -26t-93.5 -75t-56 -120.5t-18.5 -161.5t18.5 -161t56 -119.5t93.5 -74.5t132 -26z" />
    <glyph glyph-name="p" unicode="p" horiz-adv-x="1113" 
d="M342 856q144 175 341 175q178 0 279 -132q104 -137 104 -386q0 -229 -116 -375q-120 -152 -306 -152t-293 119v-302q3 -1 54.5 -11t59.5 -12q30 -6 30 -37v-86h-466v86q0 31 30 37l114 23v1064q-96 19 -114 23q-30 6 -30 37v86h144h106q38 0 48 -37zM351 244
q89 -120 234 -120t221 101t76 288q0 374 -258 374q-157 0 -273 -153v-490z" />
    <glyph glyph-name="q" unicode="q" horiz-adv-x="1110" 
d="M762 150q-140 -162 -331 -162q-180 0 -280 132q-104 136 -104 384v3q0 245 129 388q123 136 318 136q160 0 375 -42l72 -14v-1171q112 -18 128 -22q30 -6 30 -36v-87h-501v87q0 30 25.5 35.5t138.5 23.5v345zM489 130q158 0 273 153v577q-132 33 -238 33h-12
q-199 -8 -261 -220q-20 -67 -20 -116v-53q0 -374 258 -374z" />
    <glyph glyph-name="r" unicode="r" horiz-adv-x="864" 
d="M380 806q111 225 308 225q78 0 139 -36l-23 -133q-7 -25 -26 -25t-48 9.5t-81 9.5q-174 0 -260 -211v-499q25 -5 114 -23q30 -6 30 -37v-86h-466v86q0 31 30 37l114 23v721q-96 19 -114 23q-30 6 -30 37v86h144h102q29 0 40 -11t15 -38z" />
    <glyph glyph-name="s" unicode="s" horiz-adv-x="821" 
d="M464 1029q105 0 264 -53v-71v-189h-79q-29 0 -34 28q-1 4 -12 131q-91 21 -156 21h-2q-85 -1 -138 -43q-53 -41 -53 -92t23 -77q40 -47 115 -70t124.5 -39.5t96.5 -36.5t84 -50q82 -67 82 -178q0 -145 -99 -232q-103 -92 -267 -93t-327 55v265h71q25 0 30 -25
q2 -9 12 -128q86 -40 206 -40q99 0 156 50q51 45 51 102t-22.5 84.5t-59.5 47t-85 33.5q-132 41 -186.5 64.5t-91.5 54.5q-82 69 -82 187q0 123 94 205q100 89 285 89z" />
    <glyph glyph-name="t" unicode="t" horiz-adv-x="726" 
d="M434 -16q-120 0 -184.5 67t-64.5 193v620h-122q-16 0 -27 9.5t-11 29.5v71l166 21l41 313q2 15 13 24.5t28 9.5h90v-349h290v-129h-290v-608q0 -64 31 -95t80 -31q28 0 48.5 7.5t35.5 16.5t25.5 16.5t18.5 7.5q14 0 25 -17l52 -85q-46 -43 -111 -67.5t-134 -24.5z" />
    <glyph glyph-name="u" unicode="u" horiz-adv-x="1213" 
d="M563 126q151 0 274 140v601q-17 4 -113 23q-31 6 -31 37v86h144h178v-867q97 -19 114 -23q31 -6 31 -37v-86h-251q-38 0 -48 37l-14 109q-146 -162 -336 -162q-162 0 -253 105q-86 100 -86 278v500q-96 19 -114 23q-30 6 -30 37v86h322v-646q0 -115 53 -178t160 -63z" />
    <glyph glyph-name="v" unicode="v" horiz-adv-x="1193" 
d="M1086 1013h69v-86q0 -31 -30 -37q-11 -2 -98 -20l-354 -870h-161l-355 870q-17 4 -55.5 11.5t-42.5 8.5q-30 6 -30 37v86h454v-86q0 -31 -30 -37q-18 -4 -111 -22l215 -544q17 -45 37 -143q22 97 40 143l216 543q-23 5 -114 23q-30 6 -30 37v86h380z" />
    <glyph glyph-name="w" unicode="w" horiz-adv-x="1738" 
d="M1248 1013h452v-86q0 -31 -30 -37q-11 -2 -51 -10t-49 -10l-281 -870h-141q-27 0 -36 34l-224 687q-9 23 -14 48.5t-9 44.5q-6 -26 -10.5 -48.5t-12.5 -45.5l-227 -686q-11 -34 -41 -34h-134l-282 870q-8 1 -33 6q-58 12 -67 14q-30 6 -30 37v86h452v-86q0 -31 -31 -37
q-19 -4 -110 -22l162 -544q20 -91 27 -137q9 40 39 137l214 656q11 35 49 35h77q39 0 51 -35l209 -656q13 -43 35 -136q11 69 31 136l164 543q-14 2 -118 23q-31 6 -31 37v86z" />
    <glyph glyph-name="x" unicode="x" horiz-adv-x="1142" 
d="M949 142q53 -11 89 -18t36 -38v-86h-398v86q0 31 31 37q8 2 50 10l-194 301q-7 -29 -21 -52l-169 -247q10 -2 24 -5q31 -6 35 -7q31 -6 31 -37v-86h-398v86q0 31 30 37q14 3 48.5 10t48.5 9l257 377l-241 350q-85 17 -104 21q-30 6 -30 37v86h397v-86q0 -31 -31 -37
q-3 -1 -42 -9l179 -275q9 28 26 56l148 217q-13 3 -32 6.5t-21 4.5q-30 6 -30 37v86h397v-86q0 -31 -31.5 -37.5t-104.5 -20.5l-240 -340z" />
    <glyph glyph-name="y" unicode="y" horiz-adv-x="1192" 
d="M1081 1013h73v-86q0 -31 -30 -37q-9 -2 -53 -11t-52 -10l-503 -1168q-20 -44 -64 -44h-132l185 402l-356 813q-73 14 -91 18q-30 6 -30 37v86h454v-86q0 -31 -30 -37q-16 -4 -110 -22l225 -530q16 -40 27 -89q18 59 30 90l219 529q-81 16 -109.5 22t-28.5 37v86h376z" />
    <glyph glyph-name="z" unicode="z" horiz-adv-x="923" 
d="M199 1013h651v-76q0 -36 -25 -68l-548 -730h451q9 122 11 133q5 25 31 25h71v-297h-774v74q0 31 25 64l551 735h-433q-9 -111 -11 -122q-5 -25 -30 -25h-71v287h101z" />
    <glyph glyph-name="braceleft" unicode="{" horiz-adv-x="554" 
d="M182 425q0 63 -35 103.5t-102 40.5v107q67 0 102 40t35 104q0 50 -8 99t-17.5 98t-17.5 99t-8 102q0 69 20.5 127t62 100t103 65t143.5 23h53v-79q0 -20 -14 -29t-26 -9h-20q-77 0 -121.5 -50.5t-44.5 -136.5q0 -56 7 -108t16 -101.5t16 -98.5t7 -99q0 -38 -11 -70.5
t-31.5 -58t-48 -44t-60.5 -27.5q33 -9 60.5 -27.5t48 -44.5t31.5 -58t11 -69q0 -50 -7 -99t-16 -98.5t-16 -101.5t-7 -108q0 -87 44.5 -137t121.5 -50h20q12 0 26 -9t14 -29v-80h-53q-82 0 -143.5 23.5t-103 65.5t-62 100t-20.5 127q0 52 8 101.5t17.5 99t17.5 98.5t8 99z
" />
    <glyph glyph-name="bar" unicode="|" horiz-adv-x="359" 
d="M111 1533h138v-1876h-138v1876z" />
    <glyph glyph-name="braceright" unicode="}" horiz-adv-x="555" 
d="M374 425q0 -50 8 -99t17.5 -98.5t17.5 -99t8 -101.5q0 -69 -21 -127t-62 -100t-102.5 -65.5t-143.5 -23.5h-53v80q0 20 14 29t26 9h20q77 0 121.5 50t44.5 137q0 56 -7 108t-16 101.5t-16 98.5t-7 99q0 37 11 69t31.5 58t48 44.5t60.5 27.5q-33 9 -60.5 27.5t-48 44
t-31.5 58t-11 70.5q0 50 7 99t16 98.5t16 101.5t7 108q0 86 -44.5 136.5t-121.5 50.5h-20q-12 0 -26 9t-14 29v79h53q82 0 143.5 -23t102.5 -65t62 -100t21 -127q0 -52 -8 -102t-17.5 -99t-17.5 -98t-8 -99q0 -64 35 -104t102 -40v-107q-67 0 -102 -40.5t-35 -103.5z" />
    <glyph glyph-name="asciitilde" unicode="~" horiz-adv-x="1098" 
d="M729 613q65 0 101.5 42.5t37.5 112.5h144q0 -67 -18.5 -123t-53 -96t-85.5 -62t-115 -22q-52 0 -103 16t-98.5 35.5t-90.5 36t-79 16.5q-65 0 -101.5 -42t-37.5 -113h-144q0 67 18.5 123t53 96t85 62.5t115.5 22.5q52 0 103 -16.5t98.5 -36t90.5 -36t79 -16.5z" />
    <glyph glyph-name="uni00A0" unicode="&#xa0;" horiz-adv-x="263" 
 />
    <glyph glyph-name="exclamdown" unicode="&#xa1;" horiz-adv-x="400" 
d="M119 -343v541q0 45 1.5 87.5t4.5 86t7.5 89.5t10.5 98h121q6 -52 10.5 -98t7.5 -89.5t4.5 -86t1.5 -87.5v-541h-169zM75 904q0 27 9.5 49.5t26.5 39.5t39.5 26.5t49.5 9.5q26 0 48.5 -9.5t39.5 -26.5t27 -39.5t10 -49.5q0 -26 -10 -49t-27 -40t-39.5 -27t-48.5 -10
q-27 0 -49.5 10t-39.5 27t-26.5 40t-9.5 49z" />
    <glyph glyph-name="cent" unicode="&#xa2;" horiz-adv-x="920" 
d="M829 206l50 -65q-123 -151 -363 -156l-11 -172q-2 -18 -15.5 -32.5t-34.5 -14.5h-66l15 230q-129 28 -217 126q-129 142 -129 384q0 233 124 374q110 128 294 145l12 179q2 21 15.5 36t34.5 15h66l-16 -231q108 -14 247 -71v-262h-80q-29 0 -34 28q-3 11 -13 142
q-46 14 -73 18q-37 6 -57 8v-1l-52 -760v-3h41q34 0 76 15.5t70 34.5t46 34.5t38.5 15.5t31.5 -17zM241 506q0 -181 80 -284q38 -48 92 -74q4 23 53 732q-157 -37 -206 -215q-19 -71 -19 -159z" />
    <glyph glyph-name="sterling" unicode="&#xa3;" horiz-adv-x="1162" 
d="M53 672q0 26 16 44t45 18h134v261q0 94 27 176.5t82 144t137 97t192 35.5q78 0 138.5 -19.5t107.5 -53.5t81.5 -79t58.5 -97l-72 -46q-10 -6 -20.5 -8.5t-20.5 -2.5q-14 0 -26.5 5.5t-23.5 19.5q-20 25 -40.5 48.5t-46 41t-58.5 28t-78 10.5q-63 0 -111 -21t-80 -60
t-48 -94t-16 -123v-263h441v-72q0 -18 -15 -33t-37 -15h-389v-243q0 -75 -28.5 -129.5t-78.5 -99.5q29 5 57.5 8.5t58.5 3.5h676v-76q0 -14 -5.5 -27.5t-15.5 -25t-24 -18.5t-32 -7h-964v115q34 10 65 27t55 42.5t38.5 60t14.5 80.5v289h-195v58z" />
    <glyph glyph-name="currency" unicode="&#xa4;" horiz-adv-x="1017" 
d="M152 672q0 57 16.5 107.5t45.5 94.5l-153 153l91 90l151 -152q44 31 96 48t110 17q57 0 108 -16.5t94 -46.5l153 153l89 -91l-151 -152q31 -44 48 -95.5t17 -109.5q0 -57 -16.5 -108t-45.5 -94l152 -151l-91 -92l-152 152q-44 -30 -96 -47t-109 -17t-107.5 16.5
t-94.5 45.5l-153 -153l-89 91l151 152q-30 44 -47 95.5t-17 109.5zM284 672q0 -46 17.5 -86.5t48.5 -71t71.5 -48.5t87.5 -18t88.5 18t72 48.5t48.5 71t18 86.5q0 47 -18 88t-48.5 72t-72 48.5t-88.5 17.5t-87.5 -17.5t-71.5 -48.5t-48.5 -72t-17.5 -88z" />
    <glyph glyph-name="yen" unicode="&#xa5;" horiz-adv-x="1145" 
d="M146 625h306l-408 808h149q26 0 41.5 -12.5t25.5 -32.5l276 -566q14 -35 24 -64t17 -58q7 29 16 58.5t23 63.5l275 566q8 17 24.5 31t41.5 14h150l-409 -808h307v-102h-340v-105h340v-103h-340v-315h-179v315h-340v103h340v105h-340v102z" />
    <glyph glyph-name="brokenbar" unicode="&#xa6;" horiz-adv-x="350" 
d="M107 1533h138v-794h-138v794zM107 452h138v-795h-138v795z" />
    <glyph glyph-name="section" unicode="&#xa7;" horiz-adv-x="902" 
d="M760 1265q-12 -22 -37 -22q-15 0 -34 11t-46.5 24.5t-65.5 25t-90 11.5q-48 0 -86.5 -12.5t-65 -33.5t-40.5 -49t-14 -59q0 -38 24.5 -66.5t64 -52t90.5 -45t103.5 -44.5t103.5 -50.5t90.5 -63t64 -81.5t24.5 -107q0 -81 -39 -144.5t-123 -101.5q49 -37 80 -86t31 -118
q0 -70 -25 -129.5t-73.5 -103t-120 -68.5t-163.5 -25q-106 0 -192 34.5t-146 88.5l41 68q8 13 19.5 20t28.5 7q18 0 38 -14t49 -31.5t71.5 -31.5t105.5 -14q50 0 89.5 12.5t66.5 35t41 53.5t14 69q0 45 -25 78t-66 58.5t-93 46.5t-107 43t-107 47.5t-93 60.5t-66 81.5
t-25 110.5q0 78 43 140.5t136 97.5q-50 38 -81.5 90.5t-31.5 127.5q0 58 24 111.5t70 93.5t113 64t153 24q100 0 179.5 -31t137.5 -86zM215 726q0 -51 35 -86.5t89.5 -64t120.5 -55t128 -57.5q54 26 78 63.5t24 84.5q0 36 -15 64t-41 51t-61 42t-74.5 36.5t-81.5 35
t-82 37.5q-66 -30 -93 -66.5t-27 -84.5z" />
    <glyph glyph-name="dieresis" unicode="&#xa8;" horiz-adv-x="749" 
d="M309 1289q0 -23 -9 -43t-25 -35t-36.5 -24t-43.5 -9q-22 0 -42 9t-35.5 24t-24.5 35t-9 43t9 44t24.5 36.5t35.5 24.5t42 9q23 0 43.5 -9t36.5 -24.5t25 -36.5t9 -44zM668 1289q0 -23 -9 -43t-24.5 -35t-36 -24t-43.5 -9t-43.5 9t-35.5 24t-24 35t-9 43t9 44t24 36.5
t35.5 24.5t43.5 9t43.5 -9t36 -24.5t24.5 -36.5t9 -44z" />
    <glyph glyph-name="copyright" unicode="&#xa9;" horiz-adv-x="1586" 
d="M1025 463q8 5 13.5 8.5t11.5 3.5q11 0 15 -3t10 -9l61 -64q-57 -66 -140 -102.5t-199 -36.5q-98 0 -178.5 34t-138 95t-89 145t-31.5 184q0 101 34.5 185.5t95.5 145t144.5 94t181.5 33.5q108 0 184 -34t133 -89l-46 -65q-5 -6 -13 -12t-20 -6q-14 0 -29.5 11t-40.5 24.5
t-63 25t-97 11.5q-70 0 -126.5 -22.5t-96 -64.5t-61 -102t-21.5 -135q0 -77 21.5 -137.5t59.5 -101.5t91 -62.5t115 -21.5q48 0 81 6t57 16t42.5 22t38.5 24zM63 716q0 101 26 194.5t73.5 175t114.5 148t148 114.5t174 74t194 26t194.5 -26t174.5 -74t148 -114.5t114.5 -148
t73.5 -175t26 -194.5q0 -100 -26 -193.5t-73.5 -174.5t-114.5 -147.5t-148 -114.5t-174.5 -74t-194.5 -26t-194 26t-174 74t-148 114.5t-114.5 147.5t-73.5 174t-26 194zM163 716q0 -89 22 -171t63 -153.5t98 -129.5t127 -99.5t151 -64t169 -22.5q132 0 247.5 50t201 136.5
t135 203t49.5 250.5q0 89 -22.5 172t-63.5 154.5t-98.5 130.5t-127.5 100.5t-151.5 64.5t-169.5 23q-132 0 -247 -50.5t-200 -138t-134 -205t-49 -251.5z" />
    <glyph glyph-name="ordfeminine" unicode="&#xaa;" horiz-adv-x="666" 
d="M576 840h-60q-18 0 -27 5.5t-17 23.5l-12 49q-24 -21 -47 -37t-48 -27.5t-53 -17t-62 -5.5q-38 0 -70.5 10t-56.5 30.5t-37.5 50.5t-13.5 71q0 34 19 67.5t63 60t116.5 44t179.5 19.5v37q0 63 -29 93t-86 30q-38 0 -63 -9t-43.5 -19.5t-33 -19t-30.5 -8.5q-14 0 -24 7.5
t-15 17.5l-22 42q52 49 112.5 72t133.5 23q54 0 96 -17t71 -47t44 -72t15 -93v-381zM289 923q51 0 88 19t73 54v105q-70 -2 -118.5 -10.5t-78.5 -22t-43 -31t-13 -38.5q0 -42 26 -59t66 -17z" />
    <glyph glyph-name="guillemotleft" unicode="&#xab;" horiz-adv-x="768" 
d="M65 518v23l249 389l58 -28q14 -7 21 -18t7 -24q0 -17 -10 -33l-159 -261q-14 -24 -28 -37q15 -14 28 -36l159 -261q5 -8 7.5 -17t2.5 -17q0 -28 -28 -41l-58 -28zM361 518v23l249 389l58 -28q14 -7 21 -18t7 -24q0 -17 -10 -33l-159 -261q-14 -24 -28 -37q15 -14 28 -36
l159 -261q5 -8 7.5 -17t2.5 -17q0 -28 -28 -41l-58 -28z" />
    <glyph glyph-name="logicalnot" unicode="&#xac;" horiz-adv-x="1045" 
d="M87 739h860v-424h-151v289h-709v135z" />
    <glyph glyph-name="uni00AD" unicode="&#xad;" horiz-adv-x="683" 
d="M95 675h494v-151h-494v151z" />
    <glyph glyph-name="registered" unicode="&#xae;" horiz-adv-x="1586" 
d="M63 716q0 101 26 194.5t73.5 175t114.5 148t148 114.5t174 74t194 26t194.5 -26t174.5 -74t148 -114.5t114.5 -148t73.5 -175t26 -194.5q0 -100 -26 -193.5t-73.5 -174.5t-114.5 -147.5t-148 -114.5t-174.5 -74t-194.5 -26t-194 26t-174 74t-148 114.5t-114.5 147.5
t-73.5 174t-26 194zM163 716q0 -89 22 -171t63 -153.5t98 -129.5t127 -99.5t151 -64t169 -22.5q132 0 247.5 50t201 136.5t135 203t49.5 250.5q0 89 -22.5 172t-63.5 154.5t-98.5 130.5t-127.5 100.5t-151.5 64.5t-169.5 23q-132 0 -247 -50.5t-200 -138t-134 -205
t-49 -251.5zM649 626v-354h-156v892h288q172 0 255 -62.5t83 -184.5q0 -94 -53.5 -160t-159.5 -91q17 -10 29.5 -25t23.5 -35l228 -334h-148q-33 0 -49 25l-201 302q-9 13 -21.5 20t-38.5 7h-80zM649 740h116q55 0 93.5 10.5t62 30.5t34 49t10.5 67q0 37 -9.5 65t-31 46
t-56.5 27t-87 9h-132v-304z" />
    <glyph glyph-name="macron" unicode="&#xaf;" horiz-adv-x="755" 
d="M92 1348h574v-117h-574v117z" />
    <glyph glyph-name="degree" unicode="&#xb0;" horiz-adv-x="790" 
d="M68 1128q0 67 25 126t69 102.5t103.5 68.5t128.5 25t128.5 -25t103.5 -68.5t69 -102.5t25 -126q0 -66 -25 -124.5t-69 -102t-103.5 -69t-128.5 -25.5t-128.5 25.5t-103.5 69t-69 102t-25 124.5zM195 1127q0 -42 15 -78.5t42 -63.5t63.5 -42.5t78.5 -15.5t78 15.5t63 42.5
t42 63.5t15 78.5t-15 79t-42 64.5t-63 43t-78 15.5t-78.5 -15.5t-63.5 -43t-42 -64.5t-15 -79z" />
    <glyph glyph-name="plusminus" unicode="&#xb1;" horiz-adv-x="1091" 
d="M620 1202v-376h407v-136h-407v-368h-146v368h-405v136h405v376h146zM69 215h958v-135h-958v135z" />
    <glyph glyph-name="twosuperior" unicode="&#xb2;" horiz-adv-x="653" 
d="M249 1005q54 14 91 14h155q4 50 5 55q4 20 24 20h55v-194h-511v43q0 31 22 53l221 219q120 120 120 210q0 51 -30 78.5t-75 27.5q-87 0 -117 -90q-17 -30 -44 -30q-8 0 -18 2l-71 12q15 106 84 159t172 53q104 0 167 -57t63 -151q0 -99 -94 -200q-27 -29 -57 -59z" />
    <glyph glyph-name="threesuperior" unicode="&#xb3;" horiz-adv-x="630" 
d="M324 1637q51 0 92 -14.5t70.5 -40t45.5 -59.5t16 -74q0 -128 -119 -173q66 -19 100.5 -58t34.5 -101q0 -55 -21 -97t-55.5 -70.5t-80 -43t-93.5 -14.5q-57 0 -99 12.5t-72.5 37t-52 60.5t-36.5 83l55 24q15 6 29 6q29 0 40 -23q6 -13 15 -29t24 -30t36.5 -23.5t53.5 -9.5
q31 0 54.5 10t39.5 25.5t24 35.5t8 41q0 30 -8.5 51.5t-28 35.5t-52 21t-79.5 7v87q87 1 122.5 31t35.5 82q0 50 -29 76t-77 26t-76.5 -23.5t-40.5 -63.5q-8 -16 -16.5 -23.5t-23.5 -7.5q-4 0 -8.5 0.5t-9.5 1.5l-67 12q7 53 29 92.5t54.5 66t74.5 40t91 13.5z" />
    <glyph glyph-name="acute" unicode="&#xb4;" horiz-adv-x="540" 
d="M472 1449l-233 -258q-14 -15 -27.5 -21.5t-34.5 -6.5h-106l148 242q14 23 30.5 33.5t48.5 10.5h174z" />
    <glyph glyph-name="mu" unicode="&#xb5;" horiz-adv-x="1049" 
d="M285 1013v-658q0 -109 54 -169t159 -60q78 0 147 37t127 103v747h178v-1013h-106q-38 0 -48 37l-14 109q-67 -72 -137.5 -106t-157.5 -34q-74 0 -130 25.5t-95 71.5q7 -42 10 -85.5t3 -81.5v-279h-89q-38 0 -58.5 20t-20.5 56v1280h178z" />
    <glyph glyph-name="paragraph" unicode="&#xb6;" horiz-adv-x="1359" 
d="M1312 1433v-153h-219v-1481h-157v1481h-277v-1481h-157v861q-104 0 -187 30.5t-141.5 83t-90 123.5t-31.5 152q0 86 31.5 156.5t90 121t141.5 78.5t187 28h810z" />
    <glyph glyph-name="periodcentered" unicode="&#xb7;" horiz-adv-x="478" 
d="M90 593q0 31 11.5 59t32 48t47.5 32t57 12q31 0 59 -12t48 -32t32 -48t12 -59q0 -30 -12 -57t-32 -47.5t-48 -32t-59 -11.5q-30 0 -57 11.5t-47.5 32t-32 47.5t-11.5 57z" />
    <glyph glyph-name="cedilla" unicode="&#xb8;" horiz-adv-x="528" 
d="M121 -247q6 0 14 -3.5t19 -8t27 -8t37 -3.5q42 0 63.5 16.5t21.5 42.5q0 19 -11 32t-31.5 22t-50.5 15t-68 11l43 141h112l-24 -80q90 -20 130.5 -54.5t40.5 -88.5q0 -32 -16 -57.5t-44.5 -43.5t-68.5 -27.5t-88 -9.5q-41 0 -78 8.5t-68 22.5l17 55q6 18 23 18z" />
    <glyph glyph-name="onesuperior" unicode="&#xb9;" horiz-adv-x="566" 
d="M107 985h147v440l4 43l-107 -88q-12 -9 -26 -9q-23 0 -32 14l-39 56l222 190h108v-646h130v-85h-407v85z" />
    <glyph glyph-name="ordmasculine" unicode="&#xba;" horiz-adv-x="759" 
d="M380 1449q70 0 126.5 -21.5t96.5 -61.5t62 -97.5t22 -128.5q0 -72 -22 -130t-62 -98.5t-96.5 -62t-126.5 -21.5q-71 0 -128 21.5t-97.5 62t-62.5 98.5t-22 130q0 71 22 128.5t62.5 97.5t97.5 61.5t128 21.5zM380 934q84 0 125.5 52.5t41.5 152.5t-41.5 152t-125.5 52
q-87 0 -128.5 -52t-41.5 -152t41.5 -152.5t128.5 -52.5z" />
    <glyph glyph-name="guillemotright" unicode="&#xbb;" horiz-adv-x="772" 
d="M163 129l-58 28q-28 13 -28 41q0 17 10 34l159 261q13 24 27 36q-12 11 -27 37l-159 261q-10 17 -10 34q0 28 28 41l58 28l249 -389v-23zM708 541v-23l-249 -389l-58 28q-28 13 -28 41q0 17 10 34l159 261q13 24 27 36q-12 11 -27 37l-159 261q-10 17 -10 34q0 28 28 41
l58 28z" />
    <glyph glyph-name="onequarter" unicode="&#xbc;" horiz-adv-x="1381" 
d="M1233 267h109v-65q0 -11 -7 -18.5t-20 -7.5h-82v-176h-109v176h-306q-18 0 -28.5 8t-12.5 20l-10 57l342 468h124v-462zM93 788h147v440l4 43l-107 -88q-12 -9 -26 -9q-23 0 -32 14l-39 56l222 190h108v-646h130v-85h-407v85zM1124 508q0 19 1 41t4 45l-241 -327h236v241
zM372 53q-19 -31 -41 -42t-51 -11h-76l818 1372q18 29 41 45t55 16h77z" />
    <glyph glyph-name="onehalf" unicode="&#xbd;" horiz-adv-x="1371" 
d="M981 105q54 14 91 14h155q4 50 5 55q4 20 24 20h55v-194h-511v43q0 31 22 53l221 219q120 120 120 210q0 51 -30 78.5t-76 27.5q-86 0 -116 -90q-17 -30 -44 -30q-8 0 -18 2l-71 12q15 106 84 159t172 53q104 0 167 -57t63 -151q0 -99 -94 -200q-27 -29 -57 -59zM93 788
h147v440l4 43l-107 -88q-12 -9 -30.5 -9t-27.5 14l-39 56l222 190h108v-646h130v-85h-407v85zM328 53q-32 -53 -92 -53h-76l818 1372q38 61 96 61h77z" />
    <glyph glyph-name="threequarters" unicode="&#xbe;" horiz-adv-x="1424" 
d="M1276 267h109v-65q0 -11 -7 -18.5t-20 -7.5h-82v-176h-109v176h-306q-18 0 -28.5 8t-12.5 20l-10 57l342 468h124v-462zM318 1440q51 0 92 -14.5t70.5 -40t45.5 -59.5t16 -74q0 -128 -119 -173q66 -19 100.5 -58t34.5 -101q0 -55 -21 -97t-55.5 -70.5t-80 -43
t-93.5 -14.5q-57 0 -99 12.5t-72.5 37t-52 60.5t-36.5 83l55 24q15 6 29 6q29 0 40 -23q6 -13 15 -29t24 -30t36.5 -23.5t53.5 -9.5q31 0 54.5 10t39.5 25.5t24 35.5t8 41q0 30 -8.5 51.5t-28 35.5t-52 21t-79.5 7v87q87 1 122.5 31t35.5 82q0 50 -29 76t-77 26t-76.5 -23.5
t-40.5 -63.5q-8 -16 -16.5 -23.5t-23.5 -7.5q-4 0 -8.5 0.5t-9.5 1.5l-67 12q7 53 29 92.5t54.5 66t74.5 40t91 13.5zM1167 508q0 19 1 41t4 45l-241 -327h236v241zM419 53q-19 -31 -41 -42t-51 -11h-76l818 1372q18 29 41 45t55 16h77z" />
    <glyph glyph-name="questiondown" unicode="&#xbf;" horiz-adv-x="828" 
d="M783 -212q-31 -29 -68.5 -55t-81.5 -46t-96 -31.5t-112 -11.5q-79 0 -146.5 22t-116.5 63t-77 100t-28 134q0 76 22.5 129t57 91t75.5 65t76.5 51t61 48.5t29.5 57.5l18 154h122l12 -167v-12q0 -44 -22.5 -75t-57 -56t-74 -48.5t-74 -53.5t-57 -70t-22.5 -99
q0 -44 17 -78.5t46 -59t68.5 -37.5t84.5 -13q61 0 104.5 15t73.5 33t49 33t31 15q14 0 22.5 -6t15.5 -17zM337 903q0 26 9.5 49t26 40t39.5 27t49 10t49 -10t40 -27t26.5 -40t9.5 -49q0 -27 -9.5 -49.5t-26.5 -39.5t-40 -26.5t-49 -9.5t-49 9.5t-39.5 26.5t-26 39.5
t-9.5 49.5z" />
    <glyph glyph-name="Agrave" unicode="&#xc0;" 
d="M1470 112q26 -6 26 -33v-79h-411v79q0 27 27 34l82 23l-112 289h-618l-112 -289l82 -23q27 -7 27 -34v-79h-411v79q0 27 26 33l80 24l519 1297h197l518 -1297zM518 565h510l-212 550q-22 54 -43 135q-24 -88 -42 -136zM612 1782q32 0 48 -6.5t36 -26.5l211 -203h-139
q-21 0 -33 3.5t-29 15.5l-295 217h201z" />
    <glyph glyph-name="Aacute" unicode="&#xc1;" 
d="M1470 112q26 -6 26 -33v-79h-411v79q0 27 27 34l82 23l-112 289h-618l-112 -289l82 -23q27 -7 27 -34v-79h-411v79q0 27 26 33l80 24l519 1297h197l518 -1297zM518 565h510l-212 550q-22 54 -43 135q-24 -88 -42 -136zM1113 1782l-294 -216q-17 -12 -30 -16t-34 -4h-138
l211 203q10 10 18.5 16t17.5 10t20 5.5t28 1.5h201z" />
    <glyph glyph-name="Acircumflex" unicode="&#xc2;" 
d="M1470 112q26 -6 26 -33v-79h-411v79q0 27 27 34l82 23l-112 289h-618l-112 -289l82 -23q27 -7 27 -34v-79h-411v79q0 27 26 33l80 24l519 1297h197l518 -1297zM518 565h510l-212 550q-22 54 -43 135q-24 -88 -42 -136zM1098 1546h-135q-12 0 -26 3.5t-23 9.5l-130 95
q-8 4 -12 8q-8 -6 -12 -8l-130 -95q-9 -6 -23 -9.5t-26 -3.5h-135l238 210h176z" />
    <glyph glyph-name="Atilde" unicode="&#xc3;" 
d="M1470 112q26 -6 26 -33v-79h-411v79q0 27 27 34l82 23l-112 289h-618l-112 -289l82 -23q27 -7 27 -34v-79h-411v79q0 27 26 33l80 24l519 1297h197l518 -1297zM518 565h510l-212 550q-22 54 -43 135q-24 -88 -42 -136zM893 1663q35 0 53.5 20.5t19.5 57.5h98
q0 -43 -11 -79t-32 -62.5t-52 -41t-71 -14.5q-35 0 -67 13t-61.5 28.5t-55.5 28.5t-50 13q-34 0 -52.5 -21.5t-19.5 -57.5h-100q0 43 11.5 79.5t33 62.5t53 41t70.5 15q35 0 67 -13t61 -28.5t55 -28.5t50 -13z" />
    <glyph glyph-name="Adieresis" unicode="&#xc4;" 
d="M1470 112q26 -6 26 -33v-79h-411v79q0 27 27 34l82 23l-112 289h-618l-112 -289l82 -23q27 -7 27 -34v-79h-411v79q0 27 26 33l80 24l519 1297h197l518 -1297zM518 565h510l-212 550q-22 54 -43 135q-24 -88 -42 -136zM670 1666q0 -22 -9 -41.5t-24 -34.5t-35.5 -23.5
t-43.5 -8.5q-21 0 -40.5 8.5t-34.5 23.5t-24 34.5t-9 41.5q0 23 9 43.5t24 35.5t34.5 24t40.5 9q23 0 43.5 -9t35.5 -24t24 -35.5t9 -43.5zM1096 1666q0 -22 -9 -41.5t-24 -34.5t-35 -23.5t-42 -8.5q-23 0 -43 8.5t-35 23.5t-23.5 34.5t-8.5 41.5q0 23 8.5 43.5t23.5 35.5
t35 24t43 9q22 0 42 -9t35 -24t24 -35.5t9 -43.5z" />
    <glyph glyph-name="Aring" unicode="&#xc5;" 
d="M1470 112q26 -6 26 -33v-79h-411v79q0 27 27 34l82 23l-112 289h-618l-112 -289l82 -23q27 -7 27 -34v-79h-411v79q0 27 26 33l80 24l519 1297h197l518 -1297zM518 565h510l-212 550q-22 54 -43 135q-24 -88 -42 -136zM581 1659q0 39 15.5 72t41 56.5t59.5 36.5t72 13
q39 0 73.5 -13t61 -36.5t41.5 -56.5t15 -72q0 -38 -15 -70t-41.5 -55t-61 -36t-73.5 -13q-38 0 -72 13t-59.5 36t-41 55t-15.5 70zM670 1659q0 -43 27 -71.5t74 -28.5q45 0 72.5 28.5t27.5 71.5q0 45 -27.5 73t-72.5 28q-47 0 -74 -28t-27 -73z" />
    <glyph glyph-name="AE" unicode="&#xc6;" horiz-adv-x="1942" 
d="M51 79q0 27 26 33v1l80 23l615 1165q-11 2 -26.5 5t-17.5 4q-30 6 -30 37v86h1165v-345h-97q-34 0 -41 34q-2 9 -14 153h-597l60 -476h529v-152h-510l61 -489h458q11 133 13 142q7 34 41 34h97v-334h-916v86q0 31 30 37q8 2 46.5 9.5t49.5 9.5l-31 250h-556l-132 -256
l81 -23q28 -7 28 -34v-79h-227h-1h-78h-106v79zM559 532h465l-94 753q-16 -54 -55 -141z" />
    <glyph glyph-name="Ccedilla" unicode="&#xc7;" horiz-adv-x="1270" 
d="M775 1449q170 0 443 -103v-112v-222h-97q-34 0 -41 34q-3 12 -9 91t-7 90q-448 142 -675 -98q-146 -155 -146 -413q0 -260 144 -416q136 -149 353 -149q125 0 189 24q98 36 177 106q17 15 33 15t29 -13l76 -83q-176 -205 -479 -215l-15 -55q90 -20 130.5 -54.5
t40.5 -77.5t-16 -68.5t-45 -43.5q-58 -37 -156 -37q-77 0 -146 31l17 55q6 18 23 18q6 0 14 -3.5t19 -7.5q28 -12 67 -12t60.5 16.5t21.5 39t-11 35.5t-32 22q-33 15 -118 26l36 118q-259 23 -423 200q-187 203 -187 529q0 325 200 529t530 204z" />
    <glyph glyph-name="Egrave" unicode="&#xc8;" horiz-adv-x="1173" 
d="M67 1433h1027v-346h-96q-35 0 -42 35q-2 9 -14 153h-536v-476h528v-152h-528v-489h537q11 133 13 142q7 34 42 34h96v-334h-1027v86q0 31 30 37l114 23v1141q-96 19 -114 23q-30 6 -30 37v86zM505 1782q32 0 48 -6.5t36 -26.5l211 -203h-139q-21 0 -33 3.5t-29 15.5
l-295 217h201z" />
    <glyph glyph-name="Eacute" unicode="&#xc9;" horiz-adv-x="1173" 
d="M67 1433h1027v-346h-96q-35 0 -42 35q-2 9 -14 153h-536v-476h528v-152h-528v-489h537q11 133 13 142q7 34 42 34h96v-334h-1027v86q0 31 30 37l114 23v1141q-96 19 -114 23q-30 6 -30 37v86zM1006 1782l-294 -216q-17 -12 -30 -16t-34 -4h-138l211 203q10 10 18.5 16
t17.5 10t20 5.5t28 1.5h201z" />
    <glyph glyph-name="Ecircumflex" unicode="&#xca;" horiz-adv-x="1173" 
d="M67 1433h1027v-346h-96q-35 0 -42 35q-2 9 -14 153h-536v-476h528v-152h-528v-489h537q11 133 13 142q7 34 42 34h96v-334h-1027v86q0 31 30 37l114 23v1141q-96 19 -114 23q-30 6 -30 37v86zM991 1546h-135q-12 0 -26 3.5t-23 9.5l-130 95q-8 4 -12 8q-8 -6 -12 -8
l-130 -95q-9 -6 -23 -9.5t-26 -3.5h-135l238 210h176z" />
    <glyph glyph-name="Edieresis" unicode="&#xcb;" horiz-adv-x="1173" 
d="M67 1433h1027v-346h-96q-35 0 -42 35q-2 9 -14 153h-536v-476h528v-152h-528v-489h537q11 133 13 142q7 34 42 34h96v-334h-1027v86q0 31 30 37l114 23v1141q-96 19 -114 23q-30 6 -30 37v86zM563 1666q0 -22 -9 -41.5t-24 -34.5t-35.5 -23.5t-43.5 -8.5q-21 0 -40.5 8.5
t-34.5 23.5t-24 34.5t-9 41.5q0 23 9 43.5t24 35.5t34.5 24t40.5 9q23 0 43.5 -9t35.5 -24t24 -35.5t9 -43.5zM989 1666q0 -22 -9 -41.5t-24 -34.5t-35 -23.5t-42 -8.5q-23 0 -43 8.5t-35 23.5t-23.5 34.5t-8.5 41.5q0 23 8.5 43.5t23.5 35.5t35 24t43 9q22 0 42 -9t35 -24
t24 -35.5t9 -43.5z" />
    <glyph glyph-name="Igrave" unicode="&#xcc;" horiz-adv-x="673" 
d="M581 1310l-114 -23v-1141q97 -19 121 -24t24 -36v-86h-483v86q0 31 30 37l114 23v1141q-96 19 -120 24t-24 36v86h483v-86q0 -31 -31 -37zM212 1782q32 0 48 -6.5t36 -26.5l211 -203h-139q-21 0 -33 3.5t-29 15.5l-295 217h201z" />
    <glyph glyph-name="Iacute" unicode="&#xcd;" horiz-adv-x="660" 
d="M519 1310l-114 -23v-1141q97 -19 121 -24t24 -36v-86h-483v86q0 31 30 37l114 23v1141q-96 19 -120 24t-24 36v86h483v-86q0 -31 -31 -37zM651 1782l-294 -216q-17 -12 -30 -16t-34 -4h-138l211 203q10 10 18.5 16t17.5 10t20 5.5t28 1.5h201z" />
    <glyph glyph-name="Icircumflex" unicode="&#xce;" horiz-adv-x="670" 
d="M545 1310l-114 -23v-1141q97 -19 121 -24t24 -36v-86h-483v86q0 31 30 37l114 23v1141q-96 19 -120 24t-24 36v86h483v-86q0 -31 -31 -37zM662 1546h-135q-12 0 -26 3.5t-23 9.5l-130 95q-8 4 -12 8q-8 -6 -12 -8l-130 -95q-9 -6 -23 -9.5t-26 -3.5h-135l238 210h176z
" />
    <glyph glyph-name="Idieresis" unicode="&#xcf;" horiz-adv-x="666" 
d="M543 1310l-114 -23v-1141q97 -19 121 -24t24 -36v-86h-483v86q0 31 30 37l114 23v1141q-96 19 -120 24t-24 36v86h483v-86q0 -31 -31 -37zM231 1666q0 -22 -9 -41.5t-24 -34.5t-35.5 -23.5t-43.5 -8.5q-21 0 -40.5 8.5t-34.5 23.5t-24 34.5t-9 41.5q0 23 9 43.5t24 35.5
t34.5 24t40.5 9q23 0 43.5 -9t35.5 -24t24 -35.5t9 -43.5zM657 1666q0 -22 -9 -41.5t-24 -34.5t-35 -23.5t-42 -8.5q-23 0 -43 8.5t-35 23.5t-23.5 34.5t-8.5 41.5q0 23 8.5 43.5t23.5 35.5t35 24t43 9q22 0 42 -9t35 -24t24 -35.5t9 -43.5z" />
    <glyph glyph-name="Eth" unicode="&#xd0;" horiz-adv-x="1486" 
d="M1384 1009q51 -132 51 -293t-51 -293t-144 -226t-223 -145.5t-288 -51.5h-517h-144v86q0 14 8.5 24.5t21.5 12.5l114 23v520h-196v114h196v507q-96 19 -114 23q-13 2 -21.5 12.5t-8.5 24.5v86h144h517q158 0 288 -51.5t223 -146t144 -226.5zM1200 480q36 104 36 236
t-36 236t-102 176t-160 110t-209 38h-322v-496h381v-114h-381v-509h322q115 0 209 38t160 109.5t102 175.5z" />
    <glyph glyph-name="Ntilde" unicode="&#xd1;" horiz-adv-x="1550" 
d="M1208 320q-5 43 -5 98v869q-117 20 -133 23q-30 6 -30 37v86h163h170h145v-86q0 -31 -31 -37l-114 -23v-1287h-98q-41 0 -69 35l-829 1079q4 -51 4 -93v-875q118 -20 133 -23q30 -6 30 -37v-86h-477v86q0 31 30 37l114 23v1141q-96 19 -114 23q-30 6 -30 37v86h244
q26 0 38.5 -6.5t28.5 -26.5zM938 1663q35 0 53.5 20.5t19.5 57.5h98q0 -43 -11 -79t-32 -62.5t-52 -41t-71 -14.5q-35 0 -67 13t-61.5 28.5t-55.5 28.5t-50 13q-34 0 -52.5 -21.5t-19.5 -57.5h-100q0 43 11.5 79.5t33 62.5t53 41t70.5 15q35 0 67 -13t61 -28.5t55 -28.5
t50 -13z" />
    <glyph glyph-name="Ograve" unicode="&#xd2;" horiz-adv-x="1508" 
d="M1458 716q0 -161 -51 -295.5t-144 -231.5t-223.5 -150.5t-288.5 -53.5t-288 53.5t-223 150.5t-144 231.5t-51 295.5t51 295.5t144 232t223 151.5t288 54t288.5 -54t223.5 -151.5t144 -232t51 -295.5zM1259 716q0 132 -36 237t-102 177.5t-160 111.5t-210 39
q-115 0 -209 -39t-160.5 -111.5t-102.5 -177.5t-36 -237t36 -236.5t102.5 -177t160.5 -111t209 -38.5q116 0 210 38.5t160 111t102 177t36 236.5zM593 1782q32 0 48 -6.5t36 -26.5l211 -203h-139q-21 0 -33 3.5t-29 15.5l-295 217h201z" />
    <glyph glyph-name="Oacute" unicode="&#xd3;" horiz-adv-x="1508" 
d="M1458 716q0 -161 -51 -295.5t-144 -231.5t-223.5 -150.5t-288.5 -53.5t-288 53.5t-223 150.5t-144 231.5t-51 295.5t51 295.5t144 232t223 151.5t288 54t288.5 -54t223.5 -151.5t144 -232t51 -295.5zM1259 716q0 132 -36 237t-102 177.5t-160 111.5t-210 39
q-115 0 -209 -39t-160.5 -111.5t-102.5 -177.5t-36 -237t36 -236.5t102.5 -177t160.5 -111t209 -38.5q116 0 210 38.5t160 111t102 177t36 236.5zM1094 1782l-294 -216q-17 -12 -30 -16t-34 -4h-138l211 203q10 10 18.5 16t17.5 10t20 5.5t28 1.5h201z" />
    <glyph glyph-name="Ocircumflex" unicode="&#xd4;" horiz-adv-x="1508" 
d="M1458 716q0 -161 -51 -295.5t-144 -231.5t-223.5 -150.5t-288.5 -53.5t-288 53.5t-223 150.5t-144 231.5t-51 295.5t51 295.5t144 232t223 151.5t288 54t288.5 -54t223.5 -151.5t144 -232t51 -295.5zM1259 716q0 132 -36 237t-102 177.5t-160 111.5t-210 39
q-115 0 -209 -39t-160.5 -111.5t-102.5 -177.5t-36 -237t36 -236.5t102.5 -177t160.5 -111t209 -38.5q116 0 210 38.5t160 111t102 177t36 236.5zM1079 1546h-135q-12 0 -26 3.5t-23 9.5l-130 95q-8 4 -12 8q-8 -6 -12 -8l-130 -95q-9 -6 -23 -9.5t-26 -3.5h-135l238 210
h176z" />
    <glyph glyph-name="Otilde" unicode="&#xd5;" horiz-adv-x="1508" 
d="M1458 716q0 -161 -51 -295.5t-144 -231.5t-223.5 -150.5t-288.5 -53.5t-288 53.5t-223 150.5t-144 231.5t-51 295.5t51 295.5t144 232t223 151.5t288 54t288.5 -54t223.5 -151.5t144 -232t51 -295.5zM1259 716q0 132 -36 237t-102 177.5t-160 111.5t-210 39
q-115 0 -209 -39t-160.5 -111.5t-102.5 -177.5t-36 -237t36 -236.5t102.5 -177t160.5 -111t209 -38.5q116 0 210 38.5t160 111t102 177t36 236.5zM874 1663q35 0 53.5 20.5t19.5 57.5h98q0 -43 -11 -79t-32 -62.5t-52 -41t-71 -14.5q-35 0 -67 13t-61.5 28.5t-55.5 28.5
t-50 13q-34 0 -52.5 -21.5t-19.5 -57.5h-100q0 43 11.5 79.5t33 62.5t53 41t70.5 15q35 0 67 -13t61 -28.5t55 -28.5t50 -13z" />
    <glyph glyph-name="Odieresis" unicode="&#xd6;" horiz-adv-x="1508" 
d="M1458 716q0 -161 -51 -295.5t-144 -231.5t-223.5 -150.5t-288.5 -53.5t-288 53.5t-223 150.5t-144 231.5t-51 295.5t51 295.5t144 232t223 151.5t288 54t288.5 -54t223.5 -151.5t144 -232t51 -295.5zM1259 716q0 132 -36 237t-102 177.5t-160 111.5t-210 39
q-115 0 -209 -39t-160.5 -111.5t-102.5 -177.5t-36 -237t36 -236.5t102.5 -177t160.5 -111t209 -38.5q116 0 210 38.5t160 111t102 177t36 236.5zM651 1666q0 -22 -9 -41.5t-24 -34.5t-35.5 -23.5t-43.5 -8.5q-21 0 -40.5 8.5t-34.5 23.5t-24 34.5t-9 41.5q0 23 9 43.5
t24 35.5t34.5 24t40.5 9q23 0 43.5 -9t35.5 -24t24 -35.5t9 -43.5zM1077 1666q0 -22 -9 -41.5t-24 -34.5t-35 -23.5t-42 -8.5q-23 0 -43 8.5t-35 23.5t-23.5 34.5t-8.5 41.5q0 23 8.5 43.5t23.5 35.5t35 24t43 9q22 0 42 -9t35 -24t24 -35.5t9 -43.5z" />
    <glyph glyph-name="multiply" unicode="&#xd7;" horiz-adv-x="967" 
d="M924 1014l-344 -344l354 -353l-95 -96l-354 354l-357 -356l-95 96l356 356l-345 345l95 96l345 -346l344 344z" />
    <glyph glyph-name="Oslash" unicode="&#xd8;" horiz-adv-x="1508" 
d="M1458 716q0 -161 -51 -295.5t-144 -231.5t-223.5 -150.5t-288.5 -53.5q-108 0 -202 24.5t-173 72.5l-100 -136q-22 -29 -51 -42t-58 -13h-78l191 260q-112 98 -173.5 242t-61.5 323q0 161 51 295.5t144 232t223 151.5t288 54q115 0 215 -29t183 -83l82 111q20 27 36 38.5
t48 11.5h100l-172 -235q103 -98 159 -237t56 -310zM243 716q0 -135 37.5 -240.5t106.5 -178.5l659 899q-60 42 -134 63.5t-161 21.5q-115 0 -209 -39t-160.5 -111.5t-102.5 -177.5t-36 -237zM1259 716q0 126 -32.5 226.5t-92.5 172.5l-655 -892q116 -70 272 -70
q116 0 210 38.5t160 111t102 177t36 236.5z" />
    <glyph glyph-name="Ugrave" unicode="&#xd9;" horiz-adv-x="1498" 
d="M1320 1433h145v-86q0 -31 -31 -37l-114 -23v-725q0 -253 -152 -414q-157 -165 -418 -165q-260 0 -418 165q-153 161 -153 414v725q-96 19 -114 23q-30 6 -30 37v86h501v-86q0 -31 -31 -37q-15 -3 -133 -23v-724q0 -183 100 -294q103 -115 278 -115t278 114q99 111 99 294
v725q-117 20 -132 23q-31 6 -31 37v86h163h193zM589 1782q32 0 48 -6.5t36 -26.5l211 -203h-139q-21 0 -33 3.5t-29 15.5l-295 217h201z" />
    <glyph glyph-name="Uacute" unicode="&#xda;" horiz-adv-x="1498" 
d="M1320 1433h145v-86q0 -31 -31 -37l-114 -23v-725q0 -253 -152 -414q-157 -165 -418 -165q-260 0 -418 165q-153 161 -153 414v725q-96 19 -114 23q-30 6 -30 37v86h501v-86q0 -31 -31 -37q-15 -3 -133 -23v-724q0 -183 100 -294q103 -115 278 -115t278 114q99 111 99 294
v725q-117 20 -132 23q-31 6 -31 37v86h163h193zM1090 1782l-294 -216q-17 -12 -30 -16t-34 -4h-138l211 203q10 10 18.5 16t17.5 10t20 5.5t28 1.5h201z" />
    <glyph glyph-name="Ucircumflex" unicode="&#xdb;" horiz-adv-x="1498" 
d="M1320 1433h145v-86q0 -31 -31 -37l-114 -23v-725q0 -253 -152 -414q-157 -165 -418 -165q-260 0 -418 165q-153 161 -153 414v725q-96 19 -114 23q-30 6 -30 37v86h501v-86q0 -31 -31 -37q-15 -3 -133 -23v-724q0 -183 100 -294q103 -115 278 -115t278 114q99 111 99 294
v725q-117 20 -132 23q-31 6 -31 37v86h163h193zM1075 1546h-135q-12 0 -26 3.5t-23 9.5l-130 95q-8 4 -12 8q-8 -6 -12 -8l-130 -95q-9 -6 -23 -9.5t-26 -3.5h-135l238 210h176z" />
    <glyph glyph-name="Udieresis" unicode="&#xdc;" horiz-adv-x="1498" 
d="M1320 1433h145v-86q0 -31 -31 -37l-114 -23v-725q0 -253 -152 -414q-157 -165 -418 -165q-260 0 -418 165q-153 161 -153 414v725q-96 19 -114 23q-30 6 -30 37v86h501v-86q0 -31 -31 -37q-15 -3 -133 -23v-724q0 -183 100 -294q103 -115 278 -115t278 114q99 111 99 294
v725q-117 20 -132 23q-31 6 -31 37v86h163h193zM647 1666q0 -22 -9 -41.5t-24 -34.5t-35.5 -23.5t-43.5 -8.5q-21 0 -40.5 8.5t-34.5 23.5t-24 34.5t-9 41.5q0 23 9 43.5t24 35.5t34.5 24t40.5 9q23 0 43.5 -9t35.5 -24t24 -35.5t9 -43.5zM1073 1666q0 -22 -9 -41.5
t-24 -34.5t-35 -23.5t-42 -8.5q-23 0 -43 8.5t-35 23.5t-23.5 34.5t-8.5 41.5q0 23 8.5 43.5t23.5 35.5t35 24t43 9q22 0 42 -9t35 -24t24 -35.5t9 -43.5z" />
    <glyph glyph-name="Yacute" unicode="&#xdd;" horiz-adv-x="1401" 
d="M883 1433h482v-86q0 -31 -25.5 -36t-105.5 -24l-437 -717v-424q14 -3 114 -23q30 -6 30 -37v-86h-144h-193h-144v86q0 31 30 37l114 23v424l-436 717q-74 18 -102 23.5t-28 36.5v86h482v-86q0 -31 -31 -37q-102 -21 -113 -23l268 -456q32 -56 58 -127q27 76 57 127
l268 456q-12 2 -114 23q-30 6 -30 37v86zM1042 1782l-294 -216q-17 -12 -30 -16t-34 -4h-138l211 203q10 10 18.5 16t17.5 10t20 5.5t28 1.5h201z" />
    <glyph glyph-name="Thorn" unicode="&#xde;" horiz-adv-x="1111" 
d="M301 272v-272h-193v1433h193v-264h230q136 0 236.5 -31.5t166.5 -89.5t98.5 -140t32.5 -183q0 -100 -35 -183t-102.5 -143t-167.5 -93.5t-229 -33.5h-230zM301 426h230q83 0 146.5 22t106.5 61.5t65 94.5t22 121q0 137 -84.5 214t-255.5 77h-230v-590z" />
    <glyph glyph-name="germandbls" unicode="&#xdf;" horiz-adv-x="1085" 
d="M582 1454q103 0 178.5 -30t124.5 -76.5t72.5 -101.5t23.5 -106q0 -60 -21.5 -103t-53.5 -76t-69.5 -58t-69.5 -49t-53.5 -49.5t-21.5 -57.5q0 -39 26.5 -65t66.5 -48.5t86.5 -46t86.5 -58.5t66.5 -86t26.5 -129t-28.5 -139t-78.5 -103.5t-117.5 -65t-146.5 -22.5
q-97 0 -176 34.5t-139 88.5l41 68q8 13 19.5 20t28.5 7q18 0 38 -14t47.5 -31t65 -31t90.5 -14q44 0 79 13.5t59.5 36.5t37.5 55t13 69q0 56 -28 91t-70 60.5t-91 46.5t-91 50t-70 70.5t-28 107.5q0 53 22.5 92.5t56 71t72.5 58.5t72.5 57t56 65.5t22.5 83.5
q0 32 -12.5 64.5t-40.5 58.5t-72.5 42.5t-107.5 16.5q-68 0 -123.5 -21t-95 -63t-61 -105t-21.5 -147v-986h-179v992q0 104 34.5 189t98.5 146t154 94t200 33z" />
    <glyph glyph-name="agrave" unicode="&#xe0;" horiz-adv-x="1020" 
d="M92 872q167 161 324 161t223 -28t111 -78q91 -101 91 -277v-505q96 -19 112.5 -22.5t16.5 -34.5v-86h-208q-55 0 -63 42l-20 94q-169 -152 -290.5 -152t-173 16.5t-89.5 49.5q-83 72 -83 168t33 152t106 99q168 98 484 98v79q0 241 -200 241q-114 0 -190 -53.5t-97 -53.5
q-37 0 -87 90zM214 264q0 -153 162.5 -153t289.5 136v209q-452 0 -452 -192zM379 1449q33 0 49 -10.5t30 -33.5l149 -242h-102q-21 0 -34 6.5t-27 21.5l-234 258h169z" />
    <glyph glyph-name="aacute" unicode="&#xe1;" horiz-adv-x="1020" 
d="M92 872q167 161 324 161t223 -28t111 -78q91 -101 91 -277v-505q96 -19 112.5 -22.5t16.5 -34.5v-86h-208q-55 0 -63 42l-20 94q-169 -152 -290.5 -152t-173 16.5t-89.5 49.5q-83 72 -83 168t33 152t106 99q168 98 484 98v79q0 241 -200 241q-114 0 -190 -53.5t-97 -53.5
q-37 0 -87 90zM214 264q0 -153 162.5 -153t289.5 136v209q-452 0 -452 -192zM769 1449l-233 -258q-14 -15 -27.5 -21.5t-34.5 -6.5h-106l148 242q14 23 30.5 33.5t48.5 10.5h174z" />
    <glyph glyph-name="acircumflex" unicode="&#xe2;" horiz-adv-x="1019" 
d="M92 872q167 161 324 161t223 -28t111 -78q91 -101 91 -277v-505q96 -19 112.5 -22.5t16.5 -34.5v-86h-208q-55 0 -63 42l-20 94q-169 -152 -290.5 -152t-173 16.5t-89.5 49.5q-83 72 -83 168t33 152t106 99q168 98 484 98v79q0 241 -200 241q-114 0 -190 -53.5t-97 -53.5
q-37 0 -87 90zM214 264q0 -153 162.5 -153t289.5 136v209q-452 0 -452 -192zM784 1169h-119q-21 0 -40 14l-128 126l-17 17l-16 -17l-129 -126q-6 -5 -17 -9.5t-23 -4.5h-123l223 264h166z" />
    <glyph glyph-name="atilde" unicode="&#xe3;" horiz-adv-x="1020" 
d="M92 872q167 161 324 161t223 -28t111 -78q91 -101 91 -277v-505q96 -19 112.5 -22.5t16.5 -34.5v-86h-208q-55 0 -63 42l-20 94q-169 -152 -290.5 -152t-173 16.5t-89.5 49.5q-83 72 -83 168t33 152t106 99q168 98 484 98v79q0 241 -200 241q-114 0 -190 -53.5t-97 -53.5
q-37 0 -87 90zM214 264q0 -153 162.5 -153t289.5 136v209q-452 0 -452 -192zM589 1325q36 0 55.5 21t20.5 65h108q0 -47 -12.5 -86.5t-36 -67.5t-56 -43.5t-72.5 -15.5q-35 0 -65.5 14.5t-57.5 31.5t-51 31.5t-47 14.5q-72 0 -74 -88h-111q0 48 13 87.5t37 68t57 44t72 15.5
q35 0 65.5 -14.5t57.5 -31.5t50.5 -31.5t46.5 -14.5z" />
    <glyph glyph-name="adieresis" unicode="&#xe4;" horiz-adv-x="1019" 
d="M92 872q167 161 324 161t223 -28t111 -78q91 -101 91 -277v-505q96 -19 112.5 -22.5t16.5 -34.5v-86h-208q-55 0 -63 42l-20 94q-169 -152 -290.5 -152t-173 16.5t-89.5 49.5q-83 72 -83 168t33 152t106 99q168 98 484 98v79q0 241 -200 241q-114 0 -190 -53.5t-97 -53.5
q-37 0 -87 90zM214 264q0 -153 162.5 -153t289.5 136v209q-452 0 -452 -192zM411 1289q0 -23 -9 -43t-25 -35t-36.5 -24t-43.5 -9q-22 0 -42 9t-35.5 24t-24.5 35t-9 43t9 44t24.5 36.5t35.5 24.5t42 9q23 0 43.5 -9t36.5 -24.5t25 -36.5t9 -44zM770 1289q0 -23 -9 -43
t-24.5 -35t-36 -24t-43.5 -9t-43.5 9t-35.5 24t-24 35t-9 43t9 44t24 36.5t35.5 24.5t43.5 9t43.5 -9t36 -24.5t24.5 -36.5t9 -44z" />
    <glyph glyph-name="aring" unicode="&#xe5;" horiz-adv-x="1019" 
d="M92 872q167 161 324 161t223 -28t111 -78q91 -101 91 -277v-505q96 -19 112.5 -22.5t16.5 -34.5v-86h-208q-55 0 -63 42l-20 94q-169 -152 -290.5 -152t-173 16.5t-89.5 49.5q-83 72 -83 168t33 152t106 99q168 98 484 98v79q0 241 -200 241q-114 0 -190 -53.5t-97 -53.5
q-37 0 -87 90zM214 264q0 -153 162.5 -153t289.5 136v209q-452 0 -452 -192zM279 1315q0 42 16 76t43.5 59t63.5 38.5t76 13.5q41 0 77.5 -13.5t64.5 -38.5t44 -59t16 -76q0 -41 -16 -75t-44 -58t-64.5 -37.5t-77.5 -13.5q-40 0 -76 13.5t-63.5 37.5t-43.5 58t-16 75z
M379 1315q0 -44 27 -72t74 -28q45 0 72.5 28t27.5 72q0 45 -27.5 73t-72.5 28q-47 0 -74 -28t-27 -73z" />
    <glyph glyph-name="ae" unicode="&#xe6;" horiz-adv-x="1554" 
d="M1119 1029q82 0 152.5 -32t122 -93t81 -148.5t29.5 -199.5q0 -41 -8 -55.5t-33 -14.5h-627q4 -91 27 -158.5t61.5 -112.5t91 -67t117.5 -22q69 0 115 14.5t76.5 32.5t49.5 32.5t35 14.5q14 0 23 -4.5t15 -12.5l47 -61q-33 -40 -76.5 -69.5t-93 -48.5t-102.5 -28.5
t-105 -9.5q-117 0 -212.5 56.5t-150.5 172.5q-27 -62 -70.5 -106t-96.5 -72t-112.5 -40.5t-118.5 -12.5q-69 0 -126 17.5t-98.5 52.5t-64 88t-22.5 125q0 60 33 118t106.5 104t192.5 75.5t291 33.5v50q0 118 -50.5 181t-149.5 63q-65 0 -109.5 -17.5t-77 -38.5t-56 -38.5
t-46.5 -17.5q-18 0 -31.5 9.5t-21.5 23.5l-32 57q84 81 174.5 121t203.5 40q120 0 193 -51t106 -142q54 88 140.5 139.5t207.5 51.5zM668 486q-123 -5 -209 -22.5t-140 -45.5t-78.5 -64t-24.5 -78q0 -87 50 -127t131 -40q57 0 106.5 18t86 55t57.5 92t21 129v83zM1112 898
q-61 0 -109 -20.5t-82.5 -59.5t-55 -95t-27.5 -126h508q0 65 -15.5 120.5t-45.5 95.5t-73.5 62.5t-99.5 22.5z" />
    <glyph glyph-name="ccedilla" unicode="&#xe7;" horiz-adv-x="904" 
d="M815 207l50 -65q-112 -138 -326 -154l-17 -58q90 -20 130.5 -54.5t40.5 -77.5t-16 -68.5t-44 -43.5q-59 -37 -157 -37q-77 0 -146 31l17 55q6 18 23 18q6 0 14.5 -3.5t18.5 -7.5q28 -12 67 -12t60.5 16.5t21.5 39t-11 35.5t-31 22q-34 15 -119 26l37 121
q-154 20 -255 133q-129 142 -129 384q0 233 123 374q129 148 354 148q116 0 300 -75v-262h-80q-29 0 -34 28q-3 11 -8 75t-5 67q-46 14 -73 18q-58 10 -113 9t-110 -26.5t-94 -75.5q-77 -101 -77 -280q0 -181 80 -284q78 -99 215 -99q125 0 223 84q18 16 38.5 16t31.5 -17z
" />
    <glyph glyph-name="egrave" unicode="&#xe8;" horiz-adv-x="980" 
d="M515 1029q91 0 168 -30.5t133 -88t87.5 -142t31.5 -192.5q0 -42 -9 -56t-34 -14h-674q2 -96 26 -167t66 -118.5t100 -71t130 -23.5q67 0 115.5 15.5t83.5 33.5t58.5 33.5t40.5 15.5q22 0 34 -17l50 -65q-33 -40 -79 -69.5t-98.5 -48.5t-108.5 -28.5t-111 -9.5
q-105 0 -193.5 35.5t-153 104t-100.5 169.5t-36 232q0 106 32.5 198t93.5 159.5t149 106t198 38.5zM519 898q-129 0 -203 -74.5t-92 -206.5h551q0 62 -17 113.5t-50 89t-80.5 58t-108.5 20.5zM419 1449q33 0 49 -10.5t30 -33.5l149 -242h-102q-21 0 -34 6.5t-27 21.5
l-234 258h169z" />
    <glyph glyph-name="eacute" unicode="&#xe9;" horiz-adv-x="980" 
d="M515 1029q91 0 168 -30.5t133 -88t87.5 -142t31.5 -192.5q0 -42 -9 -56t-34 -14h-674q2 -96 26 -167t66 -118.5t100 -71t130 -23.5q67 0 115.5 15.5t83.5 33.5t58.5 33.5t40.5 15.5q22 0 34 -17l50 -65q-33 -40 -79 -69.5t-98.5 -48.5t-108.5 -28.5t-111 -9.5
q-105 0 -193.5 35.5t-153 104t-100.5 169.5t-36 232q0 106 32.5 198t93.5 159.5t149 106t198 38.5zM519 898q-129 0 -203 -74.5t-92 -206.5h551q0 62 -17 113.5t-50 89t-80.5 58t-108.5 20.5zM809 1449l-233 -258q-14 -15 -27.5 -21.5t-34.5 -6.5h-106l148 242
q14 23 30.5 33.5t48.5 10.5h174z" />
    <glyph glyph-name="ecircumflex" unicode="&#xea;" horiz-adv-x="979" 
d="M514 1029q91 0 168 -30.5t133 -88t87.5 -142t31.5 -192.5q0 -42 -9 -56t-34 -14h-674q2 -96 26 -167t66 -118.5t100 -71t130 -23.5q67 0 115.5 15.5t83.5 33.5t58.5 33.5t40.5 15.5q22 0 34 -17l50 -65q-33 -40 -79 -69.5t-98.5 -48.5t-108.5 -28.5t-111 -9.5
q-105 0 -193.5 35.5t-153 104t-100.5 169.5t-36 232q0 106 32.5 198t93.5 159.5t149 106t198 38.5zM518 898q-129 0 -203 -74.5t-92 -206.5h551q0 62 -17 113.5t-50 89t-80.5 58t-108.5 20.5zM823 1169h-119q-21 0 -40 14l-128 126l-17 17l-16 -17l-129 -126q-6 -5 -17 -9.5
t-23 -4.5h-123l223 264h166z" />
    <glyph glyph-name="edieresis" unicode="&#xeb;" horiz-adv-x="979" 
d="M514 1029q91 0 168 -30.5t133 -88t87.5 -142t31.5 -192.5q0 -42 -9 -56t-34 -14h-674q2 -96 26 -167t66 -118.5t100 -71t130 -23.5q67 0 115.5 15.5t83.5 33.5t58.5 33.5t40.5 15.5q22 0 34 -17l50 -65q-33 -40 -79 -69.5t-98.5 -48.5t-108.5 -28.5t-111 -9.5
q-105 0 -193.5 35.5t-153 104t-100.5 169.5t-36 232q0 106 32.5 198t93.5 159.5t149 106t198 38.5zM518 898q-129 0 -203 -74.5t-92 -206.5h551q0 62 -17 113.5t-50 89t-80.5 58t-108.5 20.5zM450 1289q0 -23 -9 -43t-25 -35t-36.5 -24t-43.5 -9q-22 0 -42 9t-35.5 24
t-24.5 35t-9 43t9 44t24.5 36.5t35.5 24.5t42 9q23 0 43.5 -9t36.5 -24.5t25 -36.5t9 -44zM809 1289q0 -23 -9 -43t-24.5 -35t-36 -24t-43.5 -9t-43.5 9t-35.5 24t-24 35t-9 43t9 44t24 36.5t35.5 24.5t43.5 9t43.5 -9t36 -24.5t24.5 -36.5t9 -44z" />
    <glyph glyph-name="igrave" unicode="&#xec;" horiz-adv-x="582" 
d="M333 1163q-22 0 -34.5 6.5t-26.5 21.5l-234 258h169q33 0 48.5 -10t30.5 -34l149 -242h-102zM503 123q13 -2 21.5 -12.5t8.5 -24.5v-86h-466v86q0 9 4 17t11 13.5t15 6.5l114 23v721q-96 19 -114 23q-13 2 -21.5 12.5t-8.5 24.5v86h144h178v-867q96 -19 114 -23z" />
    <glyph glyph-name="iacute" unicode="&#xed;" horiz-adv-x="611" 
d="M360 1191q-14 -15 -26.5 -21.5t-35.5 -6.5h-106l148 242q15 24 31 34t48 10h174zM499 123q13 -2 22 -12.5t9 -24.5v-86h-467v86q0 14 8.5 24.5t21.5 12.5l114 23v721q-96 19 -114 23q-13 2 -21.5 12.5t-8.5 24.5v86h144h178v-867q97 -19 114 -23z" />
    <glyph glyph-name="icircumflex" unicode="&#xee;" horiz-adv-x="636" 
d="M178 1183q-17 -14 -40 -14h-123l223 264h166l223 -264h-119q-21 0 -40 14q-10 10 -63.5 62.5t-81.5 80.5q-28 -29 -81 -80.5t-64 -62.5zM519 123q13 -2 21.5 -12.5t8.5 -24.5v-86h-466v86q0 9 4 17t11 13.5t15 6.5l114 23v721q-96 19 -114 23q-13 2 -21.5 12.5t-8.5 24.5
v86h144h178v-867q96 -19 114 -23z" />
    <glyph glyph-name="idieresis" unicode="&#xef;" horiz-adv-x="643" 
d="M609 1333q9 -21 9 -44t-9 -43t-24.5 -35t-36 -24t-43.5 -9t-43.5 9t-35.5 24t-24 35t-9 43t9 44t24 36.5t35.5 24.5t43.5 9t43.5 -9t36 -24.5t24.5 -36.5zM145 1178q-22 0 -42 9t-35.5 24t-24.5 35t-9 43t9 44t24.5 36.5t35.5 24.5t42 9q23 0 43.5 -9t36.5 -24.5
t25 -36.5t9 -44t-9 -43t-25 -35t-36.5 -24t-43.5 -9zM523 123q13 -2 21.5 -12.5t8.5 -24.5v-86h-466v86q0 9 4 17t11 13.5t15 6.5l114 23v721q-96 19 -114 23q-13 2 -21.5 12.5t-8.5 24.5v86h144h178v-867q96 -19 114 -23z" />
    <glyph glyph-name="eth" unicode="&#xf0;" horiz-adv-x="1042" 
d="M382 1065q-4 7 -6.5 13.5t-2.5 12.5q0 22 23 37l103 72q-45 20 -95.5 37t-107.5 31q-18 5 -30.5 18.5t-12.5 36.5q0 15 5 29l20 62q96 -16 186 -46t171 -78l167 122l35 -57q8 -13 8 -24q0 -21 -22 -37l-97 -67q60 -49 109.5 -111t84.5 -139.5t54.5 -170t19.5 -202.5
q0 -143 -31 -257t-92.5 -194t-153 -123t-211.5 -43q-98 0 -183 33t-147.5 94.5t-98.5 150.5t-36 201q0 94 31 177.5t89 146.5t140.5 100t186.5 37q100 0 188.5 -43t153.5 -130q-20 136 -78.5 231t-152.5 159l-184 -135zM510 125q71 0 128.5 27t98 81.5t63.5 137t26 193.5
q-16 43 -42 83.5t-63.5 72t-87 50t-111.5 18.5q-75 0 -131.5 -25t-94.5 -68.5t-57.5 -103t-19.5 -127.5q0 -81 23 -144.5t63 -106.5t92.5 -65.5t112.5 -22.5z" />
    <glyph glyph-name="ntilde" unicode="&#xf1;" horiz-adv-x="1245" 
d="M376 866q148 163 336 163q164 0 253 -106q86 -102 86 -278v-499q97 -19 114 -23q31 -6 31 -37v-86h-323v645q0 242 -213 242q-148 0 -274 -141v-600q7 -1 114 -23q31 -6 31 -37v-86h-467v86q0 31 30 37l114 23v721q-96 19 -114 23q-30 6 -30 37v86h144h106q38 0 48 -37z
M737 1325q36 0 55.5 21t20.5 65h108q0 -47 -12.5 -86.5t-36 -67.5t-56 -43.5t-72.5 -15.5q-35 0 -65.5 14.5t-57.5 31.5t-51 31.5t-47 14.5q-72 0 -74 -88h-111q0 48 13 87.5t37 68t57 44t72 15.5q35 0 65.5 -14.5t57.5 -31.5t50.5 -31.5t46.5 -14.5z" />
    <glyph glyph-name="ograve" unicode="&#xf2;" horiz-adv-x="1053" 
d="M526 1029q111 0 200.5 -37t152 -105t96 -164.5t33.5 -215.5q0 -120 -33.5 -216t-96 -164t-152 -104.5t-200.5 -36.5t-200.5 36.5t-152.5 104.5t-97 164t-34 216q0 119 34 215.5t97 164.5t152.5 105t200.5 37zM526 125q150 0 224 100.5t74 280.5q0 181 -74 282t-224 101
q-76 0 -132 -26t-93.5 -75t-56 -120.5t-18.5 -161.5t18.5 -161t56 -119.5t93.5 -74.5t132 -26zM428 1449q33 0 49 -10.5t30 -33.5l149 -242h-102q-21 0 -34 6.5t-27 21.5l-234 258h169z" />
    <glyph glyph-name="oacute" unicode="&#xf3;" horiz-adv-x="1053" 
d="M527 1029q111 0 200.5 -37t152 -105t96 -164.5t33.5 -215.5q0 -120 -33.5 -216t-96 -164t-152 -104.5t-200.5 -36.5t-200.5 36.5t-152.5 104.5t-97 164t-34 216q0 119 34 215.5t97 164.5t152.5 105t200.5 37zM527 125q150 0 224 100.5t74 280.5q0 181 -74 282t-224 101
q-76 0 -132 -26t-93.5 -75t-56 -120.5t-18.5 -161.5t18.5 -161t56 -119.5t93.5 -74.5t132 -26zM819 1449l-233 -258q-14 -15 -27.5 -21.5t-34.5 -6.5h-106l148 242q14 23 30.5 33.5t48.5 10.5h174z" />
    <glyph glyph-name="ocircumflex" unicode="&#xf4;" horiz-adv-x="1052" 
d="M526 1029q111 0 200.5 -37t152 -105t96 -164.5t33.5 -215.5q0 -120 -33.5 -216t-96 -164t-152 -104.5t-200.5 -36.5t-200.5 36.5t-152.5 104.5t-97 164t-34 216q0 119 34 215.5t97 164.5t152.5 105t200.5 37zM526 125q150 0 224 100.5t74 280.5q0 181 -74 282t-224 101
q-76 0 -132 -26t-93.5 -75t-56 -120.5t-18.5 -161.5t18.5 -161t56 -119.5t93.5 -74.5t132 -26zM833 1169h-119q-21 0 -40 14l-128 126l-17 17l-16 -17l-129 -126q-6 -5 -17 -9.5t-23 -4.5h-123l223 264h166z" />
    <glyph glyph-name="otilde" unicode="&#xf5;" horiz-adv-x="1052" 
d="M526 1029q111 0 200.5 -37t152 -105t96 -164.5t33.5 -215.5q0 -120 -33.5 -216t-96 -164t-152 -104.5t-200.5 -36.5t-200.5 36.5t-152.5 104.5t-97 164t-34 216q0 119 34 215.5t97 164.5t152.5 105t200.5 37zM526 125q150 0 224 100.5t74 280.5q0 181 -74 282t-224 101
q-76 0 -132 -26t-93.5 -75t-56 -120.5t-18.5 -161.5t18.5 -161t56 -119.5t93.5 -74.5t132 -26zM638 1325q36 0 55.5 21t20.5 65h108q0 -47 -12.5 -86.5t-36 -67.5t-56 -43.5t-72.5 -15.5q-35 0 -65.5 14.5t-57.5 31.5t-51 31.5t-47 14.5q-72 0 -74 -88h-111q0 48 13 87.5
t37 68t57 44t72 15.5q35 0 65.5 -14.5t57.5 -31.5t50.5 -31.5t46.5 -14.5z" />
    <glyph glyph-name="odieresis" unicode="&#xf6;" horiz-adv-x="1052" 
d="M526 1029q111 0 200.5 -37t152 -105t96 -164.5t33.5 -215.5q0 -120 -33.5 -216t-96 -164t-152 -104.5t-200.5 -36.5t-200.5 36.5t-152.5 104.5t-97 164t-34 216q0 119 34 215.5t97 164.5t152.5 105t200.5 37zM526 125q150 0 224 100.5t74 280.5q0 181 -74 282t-224 101
q-76 0 -132 -26t-93.5 -75t-56 -120.5t-18.5 -161.5t18.5 -161t56 -119.5t93.5 -74.5t132 -26zM460 1289q0 -23 -9 -43t-25 -35t-36.5 -24t-43.5 -9q-22 0 -42 9t-35.5 24t-24.5 35t-9 43t9 44t24.5 36.5t35.5 24.5t42 9q23 0 43.5 -9t36.5 -24.5t25 -36.5t9 -44zM819 1289
q0 -23 -9 -43t-24.5 -35t-36 -24t-43.5 -9t-43.5 9t-35.5 24t-24 35t-9 43t9 44t24 36.5t35.5 24.5t43.5 9t43.5 -9t36 -24.5t24.5 -36.5t9 -44z" />
    <glyph glyph-name="divide" unicode="&#xf7;" horiz-adv-x="1039" 
d="M38 739h958v-135h-958v135zM392 1026q0 26 9.5 49t26 40t39 27t49.5 10q26 0 48.5 -10t39.5 -27t27 -40t10 -49q0 -27 -10 -49.5t-27 -39.5t-39.5 -26.5t-48.5 -9.5q-27 0 -49.5 9.5t-39 26.5t-26 39.5t-9.5 49.5zM392 314q0 26 9.5 49t26 40t39 27t49.5 10
q26 0 48.5 -10t39.5 -27t27 -40t10 -49q0 -27 -10 -49.5t-27 -39.5t-39.5 -26.5t-48.5 -9.5q-27 0 -49.5 9.5t-39 26.5t-26 39.5t-9.5 49.5z" />
    <glyph glyph-name="oslash" unicode="&#xf8;" horiz-adv-x="1076" 
d="M888 884q61 -68 94 -163.5t33 -213.5q0 -120 -33.5 -216t-96 -164t-152 -104.5t-200.5 -36.5q-76 0 -141.5 17t-119.5 49l-55 -74q-22 -29 -51.5 -41.5t-58.5 -12.5h-67l145 196q-66 69 -101 166t-35 221q0 119 34 215.5t97 164.5t152.5 105t200.5 37q79 0 146.5 -19
t123.5 -54l68 91q20 27 36 38.5t48 11.5h90zM222 506q0 -160 59 -257l436 590q-73 56 -184 56q-76 0 -134 -27t-97.5 -77t-59.5 -122.5t-20 -162.5zM533 120q75 0 132.5 26.5t97 76.5t59.5 121.5t20 161.5q0 151 -52 247l-433 -585q70 -48 176 -48z" />
    <glyph glyph-name="ugrave" unicode="&#xf9;" horiz-adv-x="1210" 
d="M562 126q151 0 274 140v601q-17 4 -113 23q-31 6 -31 37v86h144h178v-867q97 -19 114 -23q31 -6 31 -37v-86h-251q-38 0 -48 37l-14 109q-146 -162 -336 -162q-162 0 -253 105q-86 100 -86 278v500q-96 19 -114 23q-30 6 -30 37v86h322v-646q0 -115 53 -178t160 -63z
M501 1449q33 0 49 -10.5t30 -33.5l149 -242h-102q-21 0 -34 6.5t-27 21.5l-234 258h169z" />
    <glyph glyph-name="uacute" unicode="&#xfa;" horiz-adv-x="1209" 
d="M562 126q151 0 274 140v601q-17 4 -113 23q-31 6 -31 37v86h144h178v-867q97 -19 114 -23q31 -6 31 -37v-86h-251q-38 0 -48 37l-14 109q-146 -162 -336 -162q-162 0 -253 105q-86 100 -86 278v500q-96 19 -114 23q-30 6 -30 37v86h322v-646q0 -115 53 -178t160 -63z
M891 1449l-233 -258q-14 -15 -27.5 -21.5t-34.5 -6.5h-106l148 242q14 23 30.5 33.5t48.5 10.5h174z" />
    <glyph glyph-name="ucircumflex" unicode="&#xfb;" horiz-adv-x="1209" 
d="M562 126q151 0 274 140v601q-17 4 -113 23q-31 6 -31 37v86h144h178v-867q97 -19 114 -23q31 -6 31 -37v-86h-251q-38 0 -48 37l-14 109q-146 -162 -336 -162q-162 0 -253 105q-86 100 -86 278v500q-96 19 -114 23q-30 6 -30 37v86h322v-646q0 -115 53 -178t160 -63z
M906 1169h-119q-21 0 -40 14l-128 126l-17 17l-16 -17l-129 -126q-6 -5 -17 -9.5t-23 -4.5h-123l223 264h166z" />
    <glyph glyph-name="udieresis" unicode="&#xfc;" horiz-adv-x="1209" 
d="M562 126q151 0 274 140v601q-17 4 -113 23q-31 6 -31 37v86h144h178v-867q97 -19 114 -23q31 -6 31 -37v-86h-251q-38 0 -48 37l-14 109q-146 -162 -336 -162q-162 0 -253 105q-86 100 -86 278v500q-96 19 -114 23q-30 6 -30 37v86h322v-646q0 -115 53 -178t160 -63z
M533 1289q0 -23 -9 -43t-25 -35t-36.5 -24t-43.5 -9q-22 0 -42 9t-35.5 24t-24.5 35t-9 43t9 44t24.5 36.5t35.5 24.5t42 9q23 0 43.5 -9t36.5 -24.5t25 -36.5t9 -44zM892 1289q0 -23 -9 -43t-24.5 -35t-36 -24t-43.5 -9t-43.5 9t-35.5 24t-24 35t-9 43t9 44t24 36.5
t35.5 24.5t43.5 9t43.5 -9t36 -24.5t24.5 -36.5t9 -44z" />
    <glyph glyph-name="yacute" unicode="&#xfd;" horiz-adv-x="1189" 
d="M1080 1013h73v-86q0 -31 -30 -37q-9 -2 -53 -11t-52 -10l-503 -1168q-20 -44 -64 -44h-132l185 402l-356 813q-73 14 -91 18q-30 6 -30 37v86h454v-86q0 -31 -30 -37q-16 -4 -110 -22l225 -530q16 -40 27 -89q18 59 30 90l219 529q-81 16 -109.5 22t-28.5 37v86h376z
M897 1449l-233 -258q-14 -15 -27.5 -21.5t-34.5 -6.5h-106l148 242q14 23 30.5 33.5t48.5 10.5h174z" />
    <glyph glyph-name="thorn" unicode="&#xfe;" horiz-adv-x="1047" 
d="M109 -343v1816h178v-607q63 74 145 118.5t187 44.5q87 0 158 -33t121 -98.5t77 -162t27 -222.5q0 -112 -30 -208.5t-86 -167t-137.5 -111t-183.5 -40.5q-95 0 -161 34.5t-117 97.5v-461h-178zM560 887q-87 0 -152.5 -40t-120.5 -113v-490q49 -66 107.5 -93t130.5 -27
q141 0 217 101t76 288q0 99 -17.5 170t-50.5 116.5t-81 66.5t-109 21z" />
    <glyph glyph-name="ydieresis" unicode="&#xff;" horiz-adv-x="1189" 
d="M1080 1013h73v-86q0 -31 -30 -37q-9 -2 -53 -11t-52 -10l-503 -1168q-20 -44 -64 -44h-132l185 402l-356 813q-73 14 -91 18q-30 6 -30 37v86h454v-86q0 -31 -30 -37q-16 -4 -110 -22l225 -530q16 -40 27 -89q18 59 30 90l219 529q-81 16 -109.5 22t-28.5 37v86h376z
M539 1289q0 -23 -9 -43t-25 -35t-36.5 -24t-43.5 -9q-22 0 -42 9t-35.5 24t-24.5 35t-9 43t9 44t24.5 36.5t35.5 24.5t42 9q23 0 43.5 -9t36.5 -24.5t25 -36.5t9 -44zM898 1289q0 -23 -9 -43t-24.5 -35t-36 -24t-43.5 -9t-43.5 9t-35.5 24t-24 35t-9 43t9 44t24 36.5
t35.5 24.5t43.5 9t43.5 -9t36 -24.5t24.5 -36.5t9 -44z" />
    <glyph glyph-name="Aogonek" unicode="&#x104;" 
d="M1490 -224l28 -66q-30 -23 -76.5 -37.5t-97.5 -14.5q-88 0 -138.5 39.5t-50.5 105.5q0 58 39.5 108.5t99.5 88.5h-103h-106v79q0 15 11 25q6 6 17 9l81 23l-87 224l-25 65h-617l-54 -139l-58 -150l82 -23q10 -3 16 -9q11 -10 11 -25v-79h-106h-104h-17h-78h-55h-52v79
q0 15 11 25q6 6 16 8l79 24l519 1297h197l519 -1297l79 -23v-1q10 -2 16 -8q11 -10 11 -25v-79h-52h-37q-20 -11 -41 -26.5t-38 -35t-28 -43t-11 -49.5q0 -38 24.5 -59.5t66.5 -21.5q23 0 38 3.5t25 8t16.5 8.5t11.5 4q7 0 11.5 -4t6.5 -9zM519 565h509l-17 44l-195 506
q-22 54 -43 135q-11 -41 -21.5 -75.5t-20.5 -60.5l-176 -454l-11 -30z" />
    <glyph glyph-name="aogonek" unicode="&#x105;" horiz-adv-x="1027" 
d="M766 -59.5q-17 -19.5 -28 -43t-11 -49.5q0 -38 24.5 -59.5t66.5 -21.5q23 0 38 3.5t25 8t16.5 8.5t11.5 4q7 0 11.5 -4t6.5 -9l28 -66q-30 -23 -76.5 -37.5t-97.5 -14.5q-88 0 -138.5 39.5t-50.5 105.5q0 29 11 57t30.5 53.5t46 48t57.5 41.5h2q-9 2 -15 5q-16 8 -21 34
l-20 94q-40 -36 -78 -64.5t-80 -48t-89 -29.5q-48 -10 -106 -10q-59 0 -110.5 16.5t-89.5 49.5t-60.5 84t-22.5 120q0 60 33 115.5t106.5 99t192.5 71t291 27.5v79q0 119 -50.5 180t-149.5 61q-65 0 -109.5 -16.5t-76.5 -37.5q-34 -20 -56 -37q-24 -16 -47 -16
q-18 0 -31.5 9.5t-21.5 23.5l-32 57q84 81 181 121t215 40q85 0 151 -28t111 -78t68 -121t23 -156v-505q71 -14 99 -20q13 -2 21.5 -12.5t8.5 -24.5v-86h-129q-20 -11 -41 -26.5t-38 -35zM670 247v209q-123 0 -209 -15.5t-140 -41t-78.5 -59.5t-24.5 -76q0 -40 13 -69.5
t35 -48t52 -27t65 -8.5q47 0 86 9.5t73.5 27t66 42.5t61.5 57z" />
    <glyph glyph-name="Cacute" unicode="&#x106;" horiz-adv-x="1270" 
d="M775 1449q170 0 443 -103v-112v-222h-97q-34 0 -41 34q-3 12 -9 91t-7 90q-448 142 -675 -98q-146 -154 -146 -413q0 -260 144 -416q136 -149 353 -149q125 0 189 24q98 36 177 106q17 15 33 15t29 -13l76 -83q-186 -216 -516 -216q-308 0 -496 204q-187 202 -187 528
q0 325 200 529t530 204zM1102 1782l-294 -216q-17 -12 -30 -16t-34 -4h-138l211 203q10 10 18.5 16t17.5 10t20 5.5t28 1.5h201z" />
    <glyph glyph-name="cacute" unicode="&#x107;" horiz-adv-x="899" 
d="M864 142q-127 -156 -374 -156q-195 0 -318 137q-129 142 -129 384q0 233 123 375q129 147 354 147q116 0 300 -74v-263h-80q-29 0 -34 28q-3 11 -8 75t-5 67q-48 15 -74 19q-58 9 -112.5 8t-109.5 -26.5t-94 -75.5q-77 -101 -77 -280q0 -181 80 -284q78 -99 215 -99
q125 0 223 84q18 16 38.5 16t31.5 -17zM809 1449l-233 -258q-14 -15 -27.5 -21.5t-34.5 -6.5h-106l148 242q14 23 30.5 33.5t48.5 10.5h174z" />
    <glyph glyph-name="Eogonek" unicode="&#x118;" horiz-adv-x="1173" 
d="M1085 -224l28 -66q-30 -23 -76.5 -37.5t-97.5 -14.5q-88 0 -138.5 39.5t-50.5 105.5q0 58 39.5 108.5t99.5 88.5h-678h-144v86q0 14 8.5 24.5t21.5 12.5l114 23v1141q-96 19 -114 23q-13 2 -21.5 12.5t-8.5 24.5v86h144h883v-42v-116v-188h-97q-15 0 -26.5 10t-14.5 25
q-2 9 -14 153h-536v-476h528v-152h-528v-489h537q11 133 13 142q3 14 14.5 24t26.5 10h97v-176v-158h-91q-20 -11 -41 -26.5t-38 -35t-28 -43t-11 -49.5q0 -38 24.5 -59.5t66.5 -21.5q23 0 38 3.5t25 8t16.5 8.5t11.5 4q7 0 11.5 -4t6.5 -9z" />
    <glyph glyph-name="eogonek" unicode="&#x119;" horiz-adv-x="985" 
d="M714 -211q7 0 11.5 -4t6.5 -9l28 -66q-30 -23 -76.5 -37.5t-97.5 -14.5q-88 0 -138.5 39.5t-50.5 105.5q0 53 33 99.5t85 83.5q-103 2 -189.5 38t-149.5 105t-98 169t-35 229q0 106 32.5 198t93.5 159.5t149 106t198 38.5q91 0 168 -30.5t133 -88t87.5 -142t31.5 -192.5
q0 -42 -9 -56t-34 -14h-674q2 -96 26 -167t66 -118.5t100 -71t130 -23.5q67 0 115.5 15.5t83.5 33.5t58.5 33.5t40.5 15.5q22 0 34 -17l50 -65q-50 -60 -123.5 -95.5t-155.5 -49.5q-20 -11 -39.5 -26.5t-36 -34.5t-26.5 -42t-10 -48q0 -38 24.5 -59.5t66.5 -21.5
q23 0 38 3.5t25 8t16.5 8.5t11.5 4zM520 898q-129 0 -203 -74.5t-92 -206.5h551q0 62 -17 113.5t-50 89t-80.5 58t-108.5 20.5z" />
    <glyph glyph-name="dotlessi" unicode="&#x131;" horiz-adv-x="578" 
d="M499 123q13 -2 22 -12.5t9 -24.5v-86h-467v86q0 14 8.5 24.5t21.5 12.5l114 23v721q-96 19 -114 23q-13 2 -21.5 12.5t-8.5 24.5v86h144h178v-867q97 -19 114 -23z" />
    <glyph glyph-name="Lslash" unicode="&#x141;" horiz-adv-x="1159" 
d="M1092 312v-312h-1004v86q0 31 30 37l114 23v408l-187 -95v133q0 26 25 39l162 86v570q-96 19 -114 23q-30 6 -30 37v86h144h194h144v-86q0 -31 -30 -37q-101 -20 -114 -23v-482l384 196v-129q0 -29 -27 -43l-357 -188v-478h517q8 105 11 115q6 34 41 34h97z" />
    <glyph glyph-name="lslash" unicode="&#x142;" horiz-adv-x="622" 
d="M401 899l178 77v-102q0 -32 -27 -44l-151 -67v-617q97 -19 114 -23q31 -6 31 -37v-86h-467v86q0 31 31 37q13 3 62.5 12.5t50.5 10.5v551l-177 -76v105q0 29 25 40l152 68v493q-31 6 -113 22q-31 7 -31 37v87h144h178v-574z" />
    <glyph glyph-name="Nacute" unicode="&#x143;" horiz-adv-x="1550" 
d="M1208 320q-5 43 -5 98v869q-117 20 -133 23q-30 6 -30 37v86h163h170h145v-86q0 -31 -31 -37l-114 -23v-1287h-98q-41 0 -69 35l-829 1079q4 -51 4 -93v-875q118 -20 133 -23q30 -6 30 -37v-86h-477v86q0 31 30 37l114 23v1141q-96 19 -114 23q-30 6 -30 37v86h244
q26 0 38.5 -6.5t28.5 -26.5zM1159 1782l-294 -216q-17 -12 -30 -16t-34 -4h-138l211 203q10 10 18.5 16t17.5 10t20 5.5t28 1.5h201z" />
    <glyph glyph-name="nacute" unicode="&#x144;" horiz-adv-x="1245" 
d="M376 866q148 163 336 163q164 0 253 -106q86 -102 86 -278v-499q97 -19 114 -23q31 -6 31 -37v-86h-323v645q0 242 -213 242q-148 0 -274 -141v-600q7 -1 114 -23q31 -6 31 -37v-86h-467v86q0 31 30 37l114 23v721q-96 19 -114 23q-30 6 -30 37v86h144h106q38 0 48 -37z
M921 1449l-233 -258q-14 -15 -27.5 -21.5t-34.5 -6.5h-106l148 242q14 23 30.5 33.5t48.5 10.5h174z" />
    <glyph glyph-name="OE" unicode="&#x152;" horiz-adv-x="2121" 
d="M1889 1275h-536v-476h528v-152h-528v-489h537q11 133 13 142q7 34 41 34h97v-334h-860v240q-84 -120 -211 -187t-278.5 -67t-268.5 53.5t-201 150t-130 231t-46 295.5t46 295.5t130 231.5q177 206 460 206q161 0 288 -67.5t211 -188.5v240h860v-158v-188h-97
q-34 0 -41 35q-2 9 -14 153zM1126 478.5q32 105.5 32 237.5t-32 237.5t-91.5 179.5t-144 113.5t-188.5 39.5t-188.5 -39.5t-144.5 -113.5t-92.5 -179.5t-32.5 -237.5t32.5 -237.5t92.5 -179t144.5 -112.5t188.5 -39t188.5 39t144 112.5t91.5 179z" />
    <glyph glyph-name="oe" unicode="&#x153;" horiz-adv-x="1676" 
d="M1241 1029q82 0 152.5 -32t122 -93t81 -148.5t29.5 -199.5q0 -41 -8 -55.5t-33 -14.5h-627q4 -91 27 -158.5t61.5 -112.5t91 -67t117.5 -22q61 0 105.5 15.5t76.5 33.5t54.5 33.5t40.5 15.5q21 0 33 -17l51 -65q-33 -40 -76.5 -69.5t-93 -48.5t-102.5 -28.5t-105 -9.5
q-119 0 -214.5 57.5t-150.5 176.5q-54 -112 -150.5 -173t-233.5 -61q-100 0 -182 36.5t-140.5 104.5t-90.5 164t-32 216q0 119 32 215.5t91.5 164.5t143 105t185.5 37q131 0 226 -60.5t148 -170.5q50 105 143.5 168t226.5 63zM507 125q139 0 207 100.5t68 280.5
q0 90 -17 161.5t-51 120.5t-86 75t-121 26q-71 0 -123 -26t-86.5 -75t-51.5 -120.5t-17 -161.5q0 -180 68.5 -280.5t209.5 -100.5zM1235 898q-61 0 -109 -20.5t-82.5 -59.5t-55.5 -95t-28 -126h508q0 65 -15.5 120.5t-45.5 95.5t-73.5 62.5t-98.5 22.5z" />
    <glyph glyph-name="Sacute" unicode="&#x15a;" horiz-adv-x="1012" 
d="M751 758q217 -98 217 -323q0 -196 -125 -320q-133 -131 -355 -131q-93 0 -196.5 19t-161.5 38l-57 20v359h97q34 0 41 -34q3 -13 9.5 -99t6.5 -87q148 -55 242 -55t148 19t92 54q77 71 77 189q0 114 -107 176q-48 28 -109 48q-190 59 -252 86.5t-110 70.5
q-107 96 -107 267q0 160 115 273q123 121 319.5 121t401.5 -82v-329h-97q-35 0 -41 34q-2 6 -16 178q-134 38 -236 38q-126 0 -198 -65q-68 -60 -68 -158q0 -105 108 -167q48 -28 111 -49q180 -60 251 -91zM892 1782l-294 -216q-17 -12 -30 -16t-34 -4h-138l211 203
q10 10 18.5 16t17.5 10t20 5.5t28 1.5h201z" />
    <glyph glyph-name="sacute" unicode="&#x15b;" horiz-adv-x="817" 
d="M460 1029q105 0 264 -53v-71v-189h-79q-29 0 -34 28q-1 4 -12 131q-91 21 -156 21h-2q-85 -1 -138 -43q-53 -41 -53 -92t23 -77q40 -47 115 -70t124.5 -39.5t96.5 -36.5t84 -50q82 -67 82 -178q0 -145 -99 -232q-103 -92 -267 -93t-327 55v265h71q25 0 30 -25
q2 -9 12 -128q86 -40 206 -40q99 0 156 50q51 45 51 102t-22.5 84.5t-59.5 47t-85 33.5q-132 41 -186.5 64.5t-91.5 54.5q-82 69 -82 187q0 123 94 205q100 89 285 89zM756 1449l-233 -258q-14 -15 -27.5 -21.5t-34.5 -6.5h-106l148 242q14 23 30.5 33.5t48.5 10.5h174z" />
    <glyph glyph-name="Scaron" unicode="&#x160;" horiz-adv-x="1012" 
d="M751 758q217 -98 217 -323q0 -196 -125 -320q-133 -131 -355 -131q-93 0 -196.5 19t-161.5 38l-57 20v359h97q34 0 41 -34q3 -13 9.5 -99t6.5 -87q148 -55 242 -55t148 19t92 54q77 71 77 189q0 114 -107 176q-48 28 -109 48q-190 59 -252 86.5t-110 70.5
q-107 96 -107 267q0 160 115 273q123 121 319.5 121t401.5 -82v-329h-97q-35 0 -41 34q-2 6 -16 178q-134 38 -236 38q-126 0 -198 -65q-68 -60 -68 -158q0 -105 108 -167q48 -28 111 -49q180 -60 251 -91zM647 1546h-176l-238 210h135q12 0 26 -3.5t23 -9.5l130 -94
q3 -2 6.5 -5t5.5 -6q2 3 5.5 6t6.5 5l130 94q9 6 23 9.5t26 3.5h135z" />
    <glyph glyph-name="scaron" unicode="&#x161;" horiz-adv-x="819" 
d="M460 1029q105 0 264 -53v-71v-189h-79q-29 0 -34 28q-1 4 -12 131q-91 21 -156 21h-2q-85 -1 -138 -43q-53 -41 -53 -92t23 -77q40 -47 115 -70t124.5 -39.5t96.5 -36.5t84 -50q82 -67 82 -178q0 -145 -99 -232q-103 -92 -267 -93t-327 55v265h71q25 0 30 -25
q2 -9 12 -128q86 -40 206 -40q99 0 156 50q51 45 51 102t-22.5 84.5t-59.5 47t-85 33.5q-132 41 -186.5 64.5t-91.5 54.5q-82 69 -82 187q0 123 94 205q100 89 285 89zM143 1433h123q12 0 23 -5t17 -10l128 -125q11 -9 17 -19q5 5 8.5 10t8.5 9l128 125q6 6 17.5 10.5
t22.5 4.5h119l-223 -264h-166z" />
    <glyph glyph-name="Ydieresis" unicode="&#x178;" horiz-adv-x="1401" 
d="M883 1433h482v-86q0 -31 -25.5 -36t-105.5 -24l-437 -717v-424q14 -3 114 -23q30 -6 30 -37v-86h-144h-193h-144v86q0 31 30 37l114 23v424l-436 717q-74 18 -102 23.5t-28 36.5v86h482v-86q0 -31 -31 -37q-102 -21 -113 -23l268 -456q32 -56 58 -127q27 76 57 127
l268 456q-12 2 -114 23q-30 6 -30 37v86zM599 1666q0 -22 -9 -41.5t-24 -34.5t-35.5 -23.5t-43.5 -8.5q-21 0 -40.5 8.5t-34.5 23.5t-24 34.5t-9 41.5q0 23 9 43.5t24 35.5t34.5 24t40.5 9q23 0 43.5 -9t35.5 -24t24 -35.5t9 -43.5zM1025 1666q0 -22 -9 -41.5t-24 -34.5
t-35 -23.5t-42 -8.5q-23 0 -43 8.5t-35 23.5t-23.5 34.5t-8.5 41.5q0 23 8.5 43.5t23.5 35.5t35 24t43 9q22 0 42 -9t35 -24t24 -35.5t9 -43.5z" />
    <glyph glyph-name="Zacute" unicode="&#x179;" horiz-adv-x="1214" 
d="M1126 1297l-811 -1139h666q11 145 14 157q7 34 41 34h97v-191v-158h-1072v76q0 30 19 57l812 1142h-641q-11 -144 -14 -157q-7 -34 -41 -34h-97v191v158h1048v-72q0 -34 -21 -64zM967 1782l-294 -216q-17 -12 -30 -16t-34 -4h-138l211 203q10 10 18.5 16t17.5 10t20 5.5
t28 1.5h201z" />
    <glyph glyph-name="zacute" unicode="&#x17a;" horiz-adv-x="915" 
d="M195 1013h651v-76q0 -36 -25 -68l-548 -730h451q9 122 11 133q5 25 31 25h71v-297h-774v74q0 31 25 64l551 735h-433q-9 -111 -11 -122q-5 -25 -30 -25h-71v287h101zM770 1449l-233 -258q-14 -15 -27.5 -21.5t-34.5 -6.5h-106l148 242q14 23 30.5 33.5t48.5 10.5h174z
" />
    <glyph glyph-name="Zdotaccent" unicode="&#x17b;" horiz-adv-x="1214" 
d="M1126 1297l-811 -1139h666q11 145 14 157q7 34 41 34h97v-191v-158h-1072v76q0 30 19 57l812 1142h-641q-11 -144 -14 -157q-7 -34 -41 -34h-97v191v158h1048v-72q0 -34 -21 -64zM747 1688q0 -24 -10 -46t-27 -38.5t-39.5 -26.5t-47.5 -10q-24 0 -46 10t-38.5 26.5
t-26 38.5t-9.5 46q0 25 9.5 47t26 39t38.5 27t46 10q25 0 47.5 -10t39.5 -27t27 -39t10 -47z" />
    <glyph glyph-name="zdotaccent" unicode="&#x17c;" horiz-adv-x="916" 
d="M195 1013h651v-76q0 -36 -25 -68l-548 -730h451q9 122 11 133q5 25 31 25h71v-297h-774v74q0 31 25 64l551 735h-433q-9 -111 -11 -122q-5 -25 -30 -25h-71v287h101zM607 1338q0 -26 -10.5 -48.5t-28 -39.5t-40.5 -27t-49 -10t-48.5 10t-39.5 27t-27 39.5t-10 48.5
t10 49.5t27 41t39.5 27.5t48.5 10t49 -10t40.5 -27.5t28 -41t10.5 -49.5z" />
    <glyph glyph-name="Zcaron" unicode="&#x17d;" horiz-adv-x="1214" 
d="M1126 1297l-811 -1139h666q11 145 14 157q7 34 41 34h97v-191v-158h-1072v76q0 30 19 57l812 1142h-641q-11 -144 -14 -157q-7 -34 -41 -34h-97v191v158h1048v-72q0 -34 -21 -64zM713 1546h-176l-238 210h135q12 0 26 -3.5t23 -9.5l130 -94q3 -2 6.5 -5t5.5 -6q2 3 5.5 6
t6.5 5l130 94q9 6 23 9.5t26 3.5h135z" />
    <glyph glyph-name="zcaron" unicode="&#x17e;" horiz-adv-x="914" 
d="M194 1013h651v-76q0 -36 -25 -68l-548 -730h451q9 122 11 133q5 25 31 25h71v-297h-774v74q0 31 25 64l551 735h-433q-9 -111 -11 -122q-5 -25 -30 -25h-71v287h101zM172 1433h123q12 0 23 -5t17 -10l128 -125q11 -9 17 -19q5 5 8.5 10t8.5 9l128 125q6 6 17.5 10.5
t22.5 4.5h119l-223 -264h-166z" />
    <glyph glyph-name="florin" unicode="&#x192;" horiz-adv-x="964" 
d="M579 768l-89 -730q-25 -205 -144.5 -297.5t-333.5 -92.5v94q0 57 60 57q45 0 85.5 13t72 42t53.5 75t30 114l89 720l-155 15q-21 2 -31.5 14.5t-10.5 31.5v73h213l21 168q24 198 141.5 293.5t335.5 95.5v-98q0 -29 -14 -40.5t-45 -11.5q-46 0 -86.5 -13t-72.5 -42
t-54.5 -75.5t-31.5 -114.5l-22 -162h322v-129h-333z" />
    <glyph glyph-name="circumflex" unicode="&#x2c6;" horiz-adv-x="752" 
d="M682 1169h-119q-21 0 -40 14l-128 126l-17 17l-16 -17l-129 -126q-6 -5 -17 -9.5t-23 -4.5h-123l223 264h166z" />
    <glyph glyph-name="caron" unicode="&#x2c7;" horiz-adv-x="757" 
d="M75 1433h123q12 0 23 -5t17 -10l128 -125q11 -9 17 -19q5 5 8.5 10t8.5 9l128 125q6 6 17.5 10.5t22.5 4.5h119l-223 -264h-166z" />
    <glyph glyph-name="uni02C9" unicode="&#x2c9;" horiz-adv-x="755" 
d="M92 1348h574v-117h-574v117z" />
    <glyph glyph-name="breve" unicode="&#x2d8;" horiz-adv-x="713" 
d="M359 1164q-77 0 -129 21.5t-84.5 58t-46.5 85.5t-14 104h126q0 -33 7 -61.5t24 -48.5t45.5 -31.5t71.5 -11.5t71.5 11.5t45.5 31.5t24 48.5t7 61.5h126q0 -55 -14 -104t-46.5 -85.5t-85 -58t-128.5 -21.5z" />
    <glyph glyph-name="dotaccent" unicode="&#x2d9;" horiz-adv-x="425" 
d="M341 1338q0 -26 -10.5 -48.5t-28 -39.5t-40.5 -27t-49 -10t-48.5 10t-39.5 27t-27 39.5t-10 48.5t10 49.5t27 41t39.5 27.5t48.5 10t49 -10t40.5 -27.5t28 -41t10.5 -49.5z" />
    <glyph glyph-name="ring" unicode="&#x2da;" horiz-adv-x="567" 
d="M85 1315q0 42 16 76t43.5 59t63.5 38.5t76 13.5q41 0 77.5 -13.5t64.5 -38.5t44 -59t16 -76q0 -41 -16 -75t-44 -58t-64.5 -37.5t-77.5 -13.5q-40 0 -76 13.5t-63.5 37.5t-43.5 58t-16 75zM185 1315q0 -44 27 -72t74 -28q45 0 72.5 28t27.5 72q0 45 -27.5 73t-72.5 28
q-47 0 -74 -28t-27 -73z" />
    <glyph glyph-name="ogonek" unicode="&#x2db;" horiz-adv-x="528" 
d="M400 -211q7 0 11.5 -4t6.5 -9l28 -66q-30 -23 -76.5 -37.5t-97.5 -14.5q-88 0 -138.5 39.5t-50.5 105.5q0 31 12.5 60.5t34 56.5t51 50.5t63.5 42.5l92 -13q-20 -11 -41 -26.5t-38 -35t-28 -43t-11 -49.5q0 -38 24.5 -59.5t66.5 -21.5q23 0 38 3.5t25 8t16.5 8.5t11.5 4z
" />
    <glyph glyph-name="tilde" unicode="&#x2dc;" horiz-adv-x="750" 
d="M484 1325q36 0 55.5 21t20.5 65h108q0 -47 -12.5 -86.5t-36 -67.5t-56 -43.5t-72.5 -15.5q-35 0 -65.5 14.5t-57.5 31.5t-51 31.5t-47 14.5q-72 0 -74 -88h-111q0 48 13 87.5t37 68t57 44t72 15.5q35 0 65.5 -14.5t57.5 -31.5t50.5 -31.5t46.5 -14.5z" />
    <glyph glyph-name="hungarumlaut" unicode="&#x2dd;" horiz-adv-x="789" 
d="M407 1449l-199 -258q-12 -16 -26.5 -22t-35.5 -6h-74l138 242q13 23 29.5 33.5t49.5 10.5h118zM721 1449l-243 -258q-14 -15 -27.5 -21.5t-33.5 -6.5h-86l180 242q16 22 31 33t48 11h131z" />
    <glyph glyph-name="pi" unicode="&#x3c0;" horiz-adv-x="1312" 
d="M1234 1013v-72q0 -23 -15 -41t-44 -18h-136v-882h-178v882h-397v-638q0 -119 -60.5 -187.5t-189.5 -68.5q-34 0 -67 6t-64 23l7 75q2 9 6 14.5t12 8t21 3t33 0.5q66 0 94.5 31t28.5 97v636h-189v64q0 11 4.5 23t13 21.5t21.5 16t30 6.5h1069z" />
    <glyph glyph-name="endash" unicode="&#x2013;" horiz-adv-x="989" 
d="M95 655h800v-130h-800v130z" />
    <glyph glyph-name="emdash" unicode="&#x2014;" horiz-adv-x="1519" 
d="M95 655h1330v-130h-1330v130z" />
    <glyph glyph-name="quoteleft" unicode="&#x2018;" horiz-adv-x="381" 
d="M136 1012q-29 48 -42.5 96.5t-13.5 96.5q0 90 44.5 172.5t124.5 151.5l55 -34q8 -5 10.5 -11t2.5 -12q0 -14 -10 -24q-16 -20 -31 -42t-27 -46.5t-19 -51.5t-7 -57q0 -32 9.5 -66t32.5 -72q7 -11 7 -23q0 -24 -27 -34z" />
    <glyph glyph-name="quoteright" unicode="&#x2019;" horiz-adv-x="380" 
d="M249 1508q29 -48 42 -96t13 -96q0 -91 -44.5 -173.5t-123.5 -151.5l-55 34q-8 5 -10.5 11t-2.5 12q0 14 10 24q16 19 31 41.5t27 47t19 51.5t7 57q0 32 -9.5 66t-32.5 72q-7 11 -7 22q0 24 27 35z" />
    <glyph glyph-name="quotesinglbase" unicode="&#x201a;" horiz-adv-x="395" 
d="M258 241q29 -48 42 -96t13 -96q0 -91 -44.5 -173.5t-123.5 -151.5l-55 34q-8 5 -10.5 11t-2.5 12q0 14 10 24q16 19 31 41.5t27 47t19 51.5t7 57q0 32 -9.5 66t-32.5 72q-7 11 -7 22q0 24 27 35z" />
    <glyph glyph-name="quotedblleft" unicode="&#x201c;" horiz-adv-x="685" 
d="M136 1012q-29 48 -42.5 96.5t-13.5 96.5q0 90 44.5 172.5t124.5 151.5l55 -34q8 -5 10.5 -11t2.5 -12q0 -14 -10 -24q-16 -20 -31 -42t-27 -46.5t-19 -51.5t-7 -57q0 -32 9.5 -66t32.5 -72q7 -11 7 -23q0 -24 -27 -34zM440 1012q-29 48 -42.5 96.5t-13.5 96.5
q0 90 44.5 172.5t124.5 151.5l55 -34q8 -5 10.5 -11t2.5 -12q0 -14 -10 -24q-16 -20 -31 -42t-27 -46.5t-19 -51.5t-7 -57q0 -32 9.5 -66t32.5 -72q7 -11 7 -23q0 -24 -27 -34z" />
    <glyph glyph-name="quotedblright" unicode="&#x201d;" horiz-adv-x="684" 
d="M249 1508q29 -48 42 -96t13 -96q0 -91 -44.5 -173.5t-123.5 -151.5l-55 34q-8 5 -10.5 11t-2.5 12q0 14 10 24q16 19 31 41.5t27 47t19 51.5t7 57q0 32 -9.5 66t-32.5 72q-7 11 -7 22q0 24 27 35zM553 1508q29 -48 42 -96t13 -96q0 -91 -44.5 -173.5t-123.5 -151.5
l-55 34q-8 5 -10.5 11t-2.5 12q0 14 10 24q16 19 31 41.5t27 47t19 51.5t7 57q0 32 -9.5 66t-32.5 72q-7 11 -7 22q0 24 27 35z" />
    <glyph glyph-name="quotedblbase" unicode="&#x201e;" horiz-adv-x="699" 
d="M258 241q29 -48 42 -96t13 -96q0 -91 -44.5 -173.5t-123.5 -151.5l-55 34q-8 5 -10.5 11t-2.5 12q0 14 10 24q16 19 31 41.5t27 47t19 51.5t7 57q0 32 -9.5 66t-32.5 72q-7 11 -7 22q0 24 27 35zM562 241q29 -48 42 -96t13 -96q0 -91 -44.5 -173.5t-123.5 -151.5l-55 34
q-8 5 -10.5 11t-2.5 12q0 14 10 24q16 19 31 41.5t27 47t19 51.5t7 57q0 32 -9.5 66t-32.5 72q-7 11 -7 22q0 24 27 35z" />
    <glyph glyph-name="dagger" unicode="&#x2020;" horiz-adv-x="1014" 
d="M46 918q0 31 20.5 55t63.5 24q34 0 72 -4.5t78 -9.5t80 -11t79 -9l-24 488q40 23 93 23q55 0 93 -23l-23 -488q78 7 158.5 20t149.5 14q44 0 64 -24t20 -55v-60h-392v-416l23 -777q-38 -23 -93 -23q-53 0 -93 23l24 777v416h-393v60z" />
    <glyph glyph-name="daggerdbl" unicode="&#x2021;" horiz-adv-x="1033" 
d="M58 918q0 31 20.5 55t63.5 24q34 0 72 -4.5t78 -9.5t80 -11t79 -9l-24 488q40 23 93 23q55 0 93 -23l-23 -488q78 7 158.5 20t149.5 14q44 0 64 -24t20 -55v-60h-392v-600h392v-60q0 -31 -20 -55t-64 -24q-69 1 -149.5 13.5t-158.5 19.5l23 -487q-38 -23 -93 -23
q-53 0 -93 23l24 487q-78 -7 -159 -19.5t-150 -13.5q-43 0 -63.5 24t-20.5 55v60h393v600h-393v60z" />
    <glyph glyph-name="bullet" unicode="&#x2022;" horiz-adv-x="893" 
d="M76 595q0 77 29.5 145t79.5 118.5t117.5 80t143.5 29.5q77 0 145 -29.5t118.5 -80t80 -118.5t29.5 -145t-29.5 -144.5t-80 -117.5t-118.5 -79.5t-145 -29.5q-76 0 -143.5 29.5t-117.5 79.5t-79.5 117.5t-29.5 144.5z" />
    <glyph glyph-name="ellipsis" unicode="&#x2026;" horiz-adv-x="1451" 
d="M89 110q0 26 9.5 49t26 40t39.5 27t49 10t49 -10t40 -27t26.5 -40t9.5 -49q0 -27 -9.5 -49.5t-26.5 -39.5t-40 -26.5t-49 -9.5t-49 9.5t-39.5 26.5t-26 39.5t-9.5 49.5zM1118 110q0 26 9.5 49t26 40t39.5 27t49 10t49 -10t40 -27t26.5 -40t9.5 -49q0 -27 -9.5 -49.5
t-26.5 -39.5t-40 -26.5t-49 -9.5t-49 9.5t-39.5 26.5t-26 39.5t-9.5 49.5zM603 110q0 26 9.5 49t26 40t39.5 27t49 10t49 -10t40 -27t26.5 -40t9.5 -49q0 -27 -9.5 -49.5t-26.5 -39.5t-40 -26.5t-49 -9.5t-49 9.5t-39.5 26.5t-26 39.5t-9.5 49.5z" />
    <glyph glyph-name="perthousand" unicode="&#x2030;" horiz-adv-x="2267" 
d="M689 1087q0 -84 -26 -150.5t-69.5 -112t-101.5 -69.5t-121 -24q-68 0 -125.5 24t-100.5 69.5t-67 112t-24 150.5q0 86 24 153t67 113t100.5 70t125.5 24q67 0 125.5 -24t101 -70t67 -113t24.5 -153zM550 1087q0 66 -14 112t-38.5 75.5t-57 42.5t-69.5 13t-69.5 -13
t-56.5 -42.5t-37.5 -75.5t-13.5 -112q0 -65 13.5 -110.5t37.5 -74t56.5 -41t69.5 -12.5t69.5 12.5t57 41t38.5 74t14 110.5zM1195 1403q9 13 23 21.5t38 8.5h128l-1047 -1404q-10 -13 -24 -21t-33 -8h-132zM1481 338q0 -84 -26 -150t-69.5 -111.5t-101 -69.5t-120.5 -24
q-68 0 -125.5 24t-100.5 69.5t-67 111.5t-24 150q0 86 24 153.5t67 113.5t100.5 70t125.5 24q67 0 125 -24t101 -70t67 -113.5t24 -153.5zM1343 338q0 66 -14 112.5t-38.5 75.5t-57 42t-69.5 13t-69.5 -13t-56.5 -42t-37.5 -75.5t-13.5 -112.5q0 -65 13.5 -110t37.5 -73.5
t56.5 -41t69.5 -12.5t69.5 12.5t57 41t38.5 73.5t14 110zM2215 338q0 -84 -26 -150t-69.5 -111.5t-101.5 -69.5t-121 -24q-68 0 -125.5 24t-100.5 69.5t-67 111.5t-24 150q0 86 24 153.5t67 113.5t100.5 70t125.5 24q67 0 125.5 -24t101 -70t67 -113.5t24.5 -153.5z
M2076 338q0 66 -14 112.5t-38.5 75.5t-57 42t-69.5 13t-69.5 -13t-56.5 -42t-37.5 -75.5t-13.5 -112.5q0 -65 13.5 -110t37.5 -73.5t56.5 -41t69.5 -12.5t69.5 12.5t57 41t38.5 73.5t14 110z" />
    <glyph glyph-name="guilsinglleft" unicode="&#x2039;" horiz-adv-x="472" 
d="M65 518v23l249 389l58 -28q14 -7 21 -18t7 -24q0 -17 -10 -33l-159 -261q-14 -24 -28 -37q15 -14 28 -36l159 -261q5 -8 7.5 -17t2.5 -17q0 -28 -28 -41l-58 -28z" />
    <glyph glyph-name="guilsinglright" unicode="&#x203a;" horiz-adv-x="476" 
d="M412 541v-23l-249 -389l-58 28q-28 13 -28 41q0 17 10 34l159 261q13 24 27 36q-12 11 -27 37l-159 261q-10 17 -10 34q0 28 28 41l58 28z" />
    <glyph glyph-name="fraction" unicode="&#x2044;" horiz-adv-x="1066" 
d="M205 53q-19 -31 -41 -42t-51 -11h-76l818 1372q18 29 41 45t55 16h77z" />
    <glyph glyph-name="Euro" unicode="&#x20ac;" horiz-adv-x="1207" 
d="M59 899h147q20 126 67.5 227.5t118 173t162.5 109.5t200 38q134 0 229 -50t165 -138l-61 -68q-8 -9 -16 -15.5t-22 -6.5q-17 0 -35.5 19t-49.5 42t-79.5 42t-123.5 19q-146 0 -242.5 -100t-128.5 -292h547v-55q0 -18 -13.5 -32.5t-37.5 -14.5h-508q-1 -20 -1.5 -40
t-0.5 -41v-31q0 -15 1 -30h467v-56q0 -17 -14 -31.5t-38 -14.5h-406q28 -206 124 -309t242 -103q54 0 95 10.5t71 26.5t51.5 34.5t37.5 34.5t28.5 26.5t24.5 10.5q8 0 14 -3.5t14 -10.5l75 -70q-70 -102 -174 -158.5t-247 -56.5q-116 0 -209 39.5t-161 113t-111.5 179
t-59.5 236.5h-142v102h134q-1 15 -1 30v31q0 20 0.5 40.5t1.5 40.5h-135v102z" />
    <glyph glyph-name="trademark" unicode="&#x2122;" horiz-adv-x="1417" 
d="M964 1109q6 -14 11.5 -26.5t9.5 -26.5q5 14 9 26.5t12 26.5l169 303q9 13 17 17t24 4h106v-592h-110v365l9 75l-183 -336q-13 -28 -44 -28h-18q-31 0 -43 28l-184 333l8 -72v-365h-110v592h106q17 0 24 -4t18 -17zM551 1433v-105h-180v-487h-126v487h-180v105h486z" />
    <glyph glyph-name="Omega" unicode="&#x2126;" horiz-adv-x="1459" 
d="M820 0v438q81 15 149 47.5t117.5 84t77 123t27.5 164.5q0 107 -34.5 188.5t-96 136t-146 82.5t-184.5 28t-184.5 -28t-146 -82.5t-96 -136t-34.5 -188.5q0 -93 27.5 -164.5t76.5 -123t117.5 -84t149.5 -47.5v-438h-504q-30 0 -48 17.5t-18 45.5v100h419v174
q-96 23 -173.5 71t-131.5 116t-83.5 155t-29.5 188q0 128 49.5 235t137 184t208.5 120t264 43t264 -43t208.5 -120t137 -184t49.5 -235q0 -101 -29.5 -188t-84 -155t-132 -116t-173.5 -71v-174h420v-100q0 -28 -18 -45.5t-48 -17.5h-504z" />
    <glyph glyph-name="partialdiff" unicode="&#x2202;" horiz-adv-x="1111" 
d="M313 1337q39 27 75.5 48t75.5 35t82 21t94 7q90 0 164 -37t126 -107t80.5 -171t28.5 -229q0 -202 -36.5 -370.5t-110 -290t-184 -189t-258.5 -67.5q-86 0 -158.5 28.5t-124.5 82t-81 129.5t-29 171q0 115 38 216t106 175t162 117t206 43q104 0 181 -44.5t125 -130.5
q2 37 2.5 70.5t0.5 59.5q0 198 -69 299.5t-193 101.5q-42 0 -77.5 -10t-63.5 -22.5t-49 -22.5t-34 -10q-11 0 -20.5 6t-20.5 24zM471 127q66 0 125.5 27.5t107.5 83.5t83.5 141t55.5 200q-10 44 -29 85.5t-50 73.5t-74.5 51t-101.5 19q-84 0 -149 -31t-109 -85.5t-66.5 -129
t-22.5 -161.5q0 -65 16 -116t46 -86t72.5 -53.5t95.5 -18.5z" />
    <glyph glyph-name="Delta" unicode="&#x2206;" horiz-adv-x="1436" 
d="M632 1433h175l595 -1433h-1364zM297 156h845l-384 959q-9 23 -19 52t-19 63q-9 -34 -18.5 -63.5t-18.5 -52.5z" />
    <glyph glyph-name="product" unicode="&#x220f;" horiz-adv-x="1339" 
d="M1293 1433v-153h-187v-1623h-184v1623h-501v-1623h-184v1623h-187v153h1243z" />
    <glyph glyph-name="summation" unicode="&#x2211;" horiz-adv-x="1312" 
d="M54 1433h1199v-153h-923l573 -709v-52l-573 -709h923v-153h-1199v65q0 14 4.5 28.5t14.5 26.5l629 770l-629 765q-11 13 -15 27.5t-4 28.5v65z" />
    <glyph glyph-name="minus" unicode="&#x2212;" horiz-adv-x="1046" 
d="M93 739h860v-135h-860v135z" />
    <glyph glyph-name="radical" unicode="&#x221a;" horiz-adv-x="1256" 
d="M280 663h-171q-28 0 -48.5 16.5t-20.5 57.5v57h335q22 0 36 -11t19 -26l150 -411q12 -32 18 -66t10 -68q5 27 10.5 55t14.5 57l432 1351q5 16 19 26.5t34 10.5h115l-554 -1712h-149z" />
    <glyph glyph-name="infinity" unicode="&#x221e;" horiz-adv-x="1411" 
d="M1023 254q-56 0 -101.5 17t-84 46.5t-71 67.5t-60.5 80q-29 -42 -61.5 -80t-70.5 -67.5t-84 -46.5t-101 -17q-62 0 -118.5 24t-99 68.5t-67.5 106.5t-25 138t25 138t67.5 106t99 68.5t118.5 24.5q55 0 101 -17t84 -46.5t70.5 -67.5t61.5 -80q28 42 60.5 80t71 67.5
t84 46.5t101.5 17q62 0 118 -24.5t99 -68.5t68 -106t25 -138t-25 -138t-68 -106.5t-99 -68.5t-118 -24zM396 400q36 0 67 15t58.5 41.5t52.5 61t50 73.5q-25 39 -50 73.5t-52.5 60.5t-58.5 41.5t-67 15.5t-67.5 -12t-55.5 -35.5t-38 -59.5t-14 -84t14 -84t38 -59.5
t55.5 -35.5t67.5 -12zM1016 400q36 0 67.5 12t55 35.5t37.5 59.5t14 84t-14 84t-37.5 59.5t-55 35.5t-67.5 12t-67 -15.5t-59 -41.5t-53 -60.5t-50 -73.5q25 -39 50 -73.5t53 -61t59 -41.5t67 -15z" />
    <glyph glyph-name="integral" unicode="&#x222b;" horiz-adv-x="1042" 
d="M513 1091q21 174 111 266t236 92q38 0 72.5 -7t66.5 -23l-8 -86q-2 -9 -6 -16t-13 -12t-24 -7.5t-39 -2.5q-100 0 -155.5 -54.5t-70.5 -172.5l-130 -1030q-13 -102 -45.5 -175t-82 -120.5t-114 -70t-139.5 -22.5q-35 0 -72 6.5t-67 22.5l10 76q3 12 7.5 18.5t14.5 9.5
t26 3.5t41 0.5q58 0 101.5 13.5t74 43t49 76t26.5 112.5z" />
    <glyph glyph-name="approxequal" unicode="&#x2248;" horiz-adv-x="979" 
d="M698 858q29 0 56 7t50 17.5t40 22.5t26 23l25 -114q-35 -47 -91 -70t-117 -23q-52 0 -103.5 16.5t-102 36.5t-98 36.5t-92.5 16.5q-30 0 -58 -6.5t-51 -17t-40 -23t-26 -24.5l-29 109q35 51 91.5 75.5t122.5 24.5q53 0 105 -16.5t102 -37t97.5 -37t92.5 -16.5zM698 520
q29 0 56 6.5t50 17t40 22.5t26 23l25 -113q-35 -48 -91 -71t-117 -23q-52 0 -103.5 16.5t-102 37t-98 37t-92.5 16.5q-30 0 -58 -7t-51 -17.5t-40 -23t-26 -24.5l-29 109q35 51 91.5 75.5t122.5 24.5q53 0 105 -16.5t102 -36.5t97.5 -36.5t92.5 -16.5z" />
    <glyph glyph-name="notequal" unicode="&#x2260;" horiz-adv-x="1014" 
d="M79 909h489l114 241h129l-114 -241h241v-135h-304l-95 -200h399v-135h-462l-119 -252h-129l119 252h-268v135h331l95 200h-426v135z" />
    <glyph glyph-name="lessequal" unicode="&#x2264;" horiz-adv-x="924" 
d="M68 791l774 377v-122q0 -16 -9 -29.5t-35 -25.5l-441 -207q-46 -18 -97 -30q26 -5 51 -12.5t46 -17.5l441 -209q25 -12 34.5 -25.5t9.5 -29.5v-122l-774 379v74zM68 215h774v-135h-774v135z" />
    <glyph glyph-name="greaterequal" unicode="&#x2265;" horiz-adv-x="920" 
d="M857 791v-74l-774 -379v122q0 16 9.5 29.5t34.5 25.5l441 209q41 19 97 30q-27 6 -51.5 13t-45.5 17l-441 207q-26 11 -35 25t-9 30v122zM857 80h-774v135h774v-135z" />
    <glyph glyph-name="lozenge" unicode="&#x25ca;" horiz-adv-x="989" 
d="M43 701l390 821h124l390 -821l-390 -820h-124zM191 701l276 -581q8 -23 15.5 -42t12.5 -37q5 18 12 37t16 42l280 581l-280 582q-18 43 -28 78q-5 -18 -12.5 -37t-15.5 -41z" />
    <glyph glyph-name="uni2669" unicode="&#x2669;" horiz-adv-x="225" 
d="M111 1473h4v-1816h-4v1816z" />
    <glyph glyph-name="undercommaaccent" horiz-adv-x="418" 
d="M269 -80q23 0 28.5 -10.5t5.5 -22.5q0 -10 -2.5 -25t-10 -40t-20 -61t-31.5 -88q-10 -22 -24.5 -29t-39.5 -7h-62l49 283h107z" />
    <glyph glyph-name="grave.case" horiz-adv-x="735" 
d="M320 1782q32 0 48 -6.5t36 -26.5l211 -203h-139q-21 0 -33 3.5t-29 15.5l-295 217h201z" />
    <glyph glyph-name="dieresis.case" horiz-adv-x="890" 
d="M343 1666q0 -22 -9 -41.5t-24 -34.5t-35.5 -23.5t-43.5 -8.5q-21 0 -40.5 8.5t-34.5 23.5t-24 34.5t-9 41.5q0 23 9 43.5t24 35.5t34.5 24t40.5 9q23 0 43.5 -9t35.5 -24t24 -35.5t9 -43.5zM769 1666q0 -22 -9 -41.5t-24 -34.5t-35 -23.5t-42 -8.5q-23 0 -43 8.5
t-35 23.5t-23.5 34.5t-8.5 41.5q0 23 8.5 43.5t23.5 35.5t35 24t43 9q22 0 42 -9t35 -24t24 -35.5t9 -43.5z" />
    <glyph glyph-name="macron.case" horiz-adv-x="728" 
d="M126 1681h478v-106h-478v106z" />
    <glyph glyph-name="acute.case" horiz-adv-x="735" 
d="M617 1782l-294 -216q-17 -12 -30 -16t-34 -4h-138l211 203q10 10 18.5 16t17.5 10t20 5.5t28 1.5h201z" />
    <glyph glyph-name="circumflex.case" horiz-adv-x="893" 
d="M773 1546h-135q-12 0 -26 3.5t-23 9.5l-130 95q-8 4 -12 8q-8 -6 -12 -8l-130 -95q-9 -6 -23 -9.5t-26 -3.5h-135l238 210h176z" />
    <glyph glyph-name="caron.case" horiz-adv-x="890" 
d="M534 1546h-176l-238 210h135q12 0 26 -3.5t23 -9.5l130 -94q3 -2 6.5 -5t5.5 -6q2 3 5.5 6t6.5 5l130 94q9 6 23 9.5t26 3.5h135z" />
    <glyph glyph-name="breve.case" horiz-adv-x="785" 
d="M394 1527q-137 0 -208 57.5t-71 171.5h115q0 -59 39 -89.5t125 -30.5t125 30.5t39 89.5h115q0 -105 -71.5 -167t-207.5 -62z" />
    <glyph glyph-name="dotaccent.case" horiz-adv-x="493" 
d="M370 1688q0 -24 -10 -46t-27 -38.5t-39.5 -26.5t-47.5 -10q-24 0 -46 10t-38.5 26.5t-26 38.5t-9.5 46q0 25 9.5 47t26 39t38.5 27t46 10q25 0 47.5 -10t39.5 -27t27 -39t10 -47z" />
    <glyph glyph-name="ring.case" horiz-adv-x="606" 
d="M115 1659q0 39 15.5 72t41 56.5t59.5 36.5t72 13q39 0 73.5 -13t61 -36.5t41.5 -56.5t15 -72q0 -38 -15 -70t-41.5 -55t-61 -36t-73.5 -13q-38 0 -72 13t-59.5 36t-41 55t-15.5 70zM204 1659q0 -43 27 -71.5t74 -28.5q45 0 72.5 28.5t27.5 71.5q0 45 -27.5 73t-72.5 28
q-47 0 -74 -28t-27 -73z" />
    <glyph glyph-name="tilde.case" horiz-adv-x="816" 
d="M525 1663q35 0 53.5 20.5t19.5 57.5h98q0 -43 -11 -79t-32 -62.5t-52 -41t-71 -14.5q-35 0 -67 13t-61.5 28.5t-55.5 28.5t-50 13q-34 0 -52.5 -21.5t-19.5 -57.5h-100q0 43 11.5 79.5t33 62.5t53 41t70.5 15q35 0 67 -13t61 -28.5t55 -28.5t50 -13z" />
    <glyph glyph-name="hungarumlaut.case" horiz-adv-x="923" 
d="M467 1771l-199 -198q-14 -14 -27.5 -20.5t-33.5 -6.5h-86l142 181q16 20 35 32t52 12h117zM805 1771l-243 -198q-17 -13 -31.5 -20t-35.5 -7h-96l179 181q19 20 39 32t52 12h136z" />
    <glyph glyph-name="caron.salt" horiz-adv-x="369" 
d="M258 1475q22 0 27.5 -10.5t5.5 -22.5q0 -10 -3.5 -26.5t-12.5 -46t-25 -74.5t-41 -111q-10 -22 -24.5 -29t-39.5 -7h-62l57 327h118z" />
    </font>
</defs>
</svg>
